<?xml version="1.0" standalone="no"?>
<!DOCTYPE svg PUBLIC "-//W3C//DTD SVG 1.1//EN" "http://www.w3.org/Graphics/SVG/1.1/DTD/svg11.dtd" >
<svg xmlns="http://www.w3.org/2000/svg">
<metadata>
Created by FontForge 20120731 at Fri May 26 17:19:17 2017
 By admin
</metadata>
<defs>
<font id="iconfont" horiz-adv-x="1024" >
  <font-face 
    font-family="iconfont"
    font-weight="500"
    font-stretch="normal"
    units-per-em="1024"
    panose-1="2 0 6 3 0 0 0 0 0 0"
    ascent="896"
    descent="-128"
    x-height="792"
    bbox="0 -128.981 1027 896.133"
    underline-thickness="0"
    underline-position="0"
    unicode-range="U+0078-E682"
  />
<missing-glyph 
 />
    <glyph glyph-name=".notdef" 
 />
    <glyph glyph-name=".notdef" 
 />
    <glyph glyph-name=".null" horiz-adv-x="0" 
 />
    <glyph glyph-name="nonmarkingreturn" horiz-adv-x="341" 
 />
    <glyph glyph-name="x" unicode="x" horiz-adv-x="1001" 
d="M281 543q-27 -1 -53 -1h-83q-18 0 -36.5 -6t-32.5 -18.5t-23 -32t-9 -45.5v-76h912v41q0 16 -0.5 30t-0.5 18q0 13 -5 29t-17 29.5t-31.5 22.5t-49.5 9h-133v-97h-438v97zM955 310v-52q0 -23 0.5 -52t0.5 -58t-10.5 -47.5t-26 -30t-33 -16t-31.5 -4.5q-14 -1 -29.5 -0.5
t-29.5 0.5h-32l-45 128h-439l-44 -128h-29h-34q-20 0 -45 1q-25 0 -41 9.5t-25.5 23t-13.5 29.5t-4 30v167h911zM163 247q-12 0 -21 -8.5t-9 -21.5t9 -21.5t21 -8.5q13 0 22 8.5t9 21.5t-9 21.5t-22 8.5zM316 123q-8 -26 -14 -48q-5 -19 -10.5 -37t-7.5 -25t-3 -15t1 -14.5
t9.5 -10.5t21.5 -4h37h67h81h80h64h36q23 0 34 12t2 38q-5 13 -9.5 30.5t-9.5 34.5q-5 19 -11 39h-368zM336 498v228q0 11 2.5 23t10 21.5t20.5 15.5t34 6h188q31 0 51.5 -14.5t20.5 -52.5v-227h-327z" />
    <glyph glyph-name="all" unicode="&#xe662;" 
d="M461 410h25v25v218q0 101 -71 172t-172 71t-172 -71t-71 -172t71 -172t172 -71h218zM51 652.5q0 79.5 56.5 136t136 56.5t135.5 -56.5t56 -135.5v-218l26 26h-218q-79 0 -135.5 56t-56.5 135.5zM461 307l-26 26v-218q0 -79 -56 -135.5t-135.5 -56.5t-136 56.5t-56.5 136
t56.5 135.5t135.5 56h218zM0 115q0 -101 71 -172t172 -71t172 71t71 172v218v25h-25h-218q-101 0 -172 -71t-71 -172zM563 461l26 -26v218q0 79 56 135.5t135.5 56.5t136 -56.5t56.5 -136t-56.5 -135.5t-135.5 -56h-218zM1024 653q0 101 -71 172t-172 71t-172 -71t-71 -172
v-218v-25h25h218q101 0 172 71t71 172zM1024 115q0 101 -71 172t-172 71h-218h-25v-25v-218q0 -101 71 -172t172 -71q57 0 107 25q10 5 13.5 15t-1.5 19.5t-15 13t-19 -1.5q-40 -20 -85 -20q-80 0 -136 56.5t-56 135.5v218l-26 -26h218q79 0 135.5 -56t56.5 -136
q0 -28 -8 -54q-3 -10 2 -19.5t15 -12.5t19.5 2t12.5 15q10 34 10 69z" />
    <glyph glyph-name="cart" unicode="&#xe618;" 
d="M235 197q9 -27 35 -46t55 -19h537h18l6 19l123 429q9 32 -9 56.5t-51 24.5h-524q-11 0 -18 -7.5t-7 -18t7 -18t18 -7.5h524q17 0 12 -16l-123 -429l24 18h-537q-13 0 -26 9t-17 21l-208 619q-4 10 -13 15t-19 1.5t-14.5 -13t-1.5 -19.5zM400 -6q0 42 -29.5 71.5t-71 29.5
t-70.5 -29.5t-29 -71.5t29 -71.5t70.5 -29.5t71 29.5t29.5 71.5zM250 -6q0 21 14.5 35.5t35 14.5t35.5 -14.5t15 -35.5t-15 -35.5t-35.5 -14.5t-35 14.5t-14.5 35.5zM924 -6q0 42 -29 71.5t-70.5 29.5t-71 -29.5t-29.5 -71.5t29.5 -71.5t71 -29.5t70.5 29.5t29 71.5zM774 -6
q0 21 15 35.5t35.5 14.5t35 -14.5t14.5 -35.5t-14.5 -35.5t-35 -14.5t-35.5 14.5t-15 35.5z" />
    <glyph glyph-name="comments" unicode="&#xe605;" 
d="M131 107q-32 0 -55 23.5t-23 56.5v640l-27 -27h867q32 0 55 -23.5t23 -56.5v-640l27 27h-473h-8l-6 -5l-225 -151q-9 -6 -11.5 -16.5t3.5 -20t17 -11.5t20 4l225 151l-15 -5h473h26v27v640q0 55 -38.5 94t-92.5 39h-867h-26v-26v-640q0 -56 38.5 -95t92.5 -39h137
q11 0 18.5 8t7.5 19t-7.5 19t-18.5 8h-137zM368 453.5q0 44.5 -31 75.5t-74.5 31t-74 -31t-30.5 -75.5t30.5 -75.5t74 -31t74.5 31t31 75.5zM210 453q0 22 15.5 38t37 16t37 -16t15.5 -38t-15.5 -37.5t-37 -15.5t-37 15.5t-15.5 37.5zM630 453.5q0 44.5 -30.5 75.5t-74 31
t-74.5 -31t-31 -75.5t31 -75.5t74.5 -31t74 31t30.5 75.5zM473 453q0 22 15 38t37 16t37.5 -16t15.5 -38t-15.5 -37.5t-37.5 -15.5t-37 15.5t-15 37.5zM893 453.5q0 44.5 -31 75.5t-74.5 31t-74 -31t-30.5 -75.5t30.5 -75.5t74 -31t74.5 31t31 75.5zM735 453q0 22 15.5 38
t37 16t37 -16t15.5 -38t-15.5 -37.5t-37 -15.5t-37 15.5t-15.5 37.5z" />
    <glyph glyph-name="cry" unicode="&#xe61a;" 
d="M1024 384q0 139 -68.5 257t-186.5 186.5t-257 68.5t-257 -68.5t-186.5 -186.5t-68.5 -257t68.5 -257t186.5 -186.5t257 -68.5q179 0 319 111q8 7 9 17t-5.5 18.5t-16.5 9.5t-18 -6q-126 -100 -288 -100q-94 0 -179.5 36.5t-147.5 98.5t-98.5 147.5t-36.5 179.5
t36.5 179.5t98.5 147.5t147.5 98.5t179.5 36.5t179.5 -36.5t147.5 -98.5t98.5 -147.5t36.5 -179.5q0 -132 -70 -244q-5 -9 -2.5 -19t11 -15.5t18.5 -3t16 11.5q77 123 77 270zM337 396q26 0 44.5 18.5t18.5 44.5t-18.5 44t-44.5 18t-44 -18t-18 -44t18 -44.5t44 -18.5z
M712 396q26 0 44 18.5t18 44.5t-18 44t-44 18t-44.5 -18t-18.5 -44t18.5 -44.5t44.5 -18.5zM353 191q69 56 171.5 56t171.5 -56q36 -28 51 -58q4 -9 1 -19t-12.5 -14.5t-19 -1.5t-14.5 13q-2 4 -8 11q-12 17 -29 30q-56 45 -140.5 45t-140.5 -45q-17 -13 -29 -30
q-6 -7 -8 -11q-5 -10 -14.5 -13t-19 1.5t-12.5 14.5t1 19q15 30 51 58z" />
    <glyph glyph-name="email" unicode="&#xe663;" 
d="M973 -38l25 25h-870q-32 0 -54.5 23t-22.5 55v720l-25 -26h870q32 0 54.5 -22.5t22.5 -54.5v-65q0 -10 7.5 -17.5t18 -7.5t18 7.5t7.5 17.5v65q0 53 -37.5 91t-90.5 38h-870h-26v-26v-720q0 -54 37.5 -91.5t90.5 -37.5h870h26v26v476q0 11 -7.5 18.5t-18 7.5t-18 -7.5
t-7.5 -18.5v-476zM513 329q13 -10 27 -2l463 255q9 5 12 15.5t-2 20t-15.5 12.5t-19.5 -3l-463 -255l27 -1l-348 248q-9 7 -19.5 5t-16.5 -10.5t-4 -19t10 -16.5z" />
    <glyph glyph-name="favorite" unicode="&#xe60a;" 
d="M472 824q10 23 17 22.5t17 -22.5l114 -265q4 -9 13.5 -13t19 0t13.5 13.5t0 19.5l-113 264q-23 53 -63 53t-64 -52l-119 -260q-5 -10 -1 -19.5t13.5 -13.5t19 -0.5t14.5 13.5zM946 500q25 -3 27.5 -9.5t-16.5 -22.5l-221 -188q-8 -7 -9 -17t6 -18t17.5 -8.5t18.5 5.5
l221 188q44 37 32 75t-70 44l-289 31q-11 1 -19 -5.5t-9 -17t5.5 -18.5t16.5 -9zM789 -50q5 -24 -0.5 -28t-27.5 8l-250 149q-9 5 -19 2.5t-15.5 -11t-3 -18.5t11.5 -16l250 -148q50 -30 83 -7t21 79l-60 279q-2 11 -10.5 16.5t-19 3.5t-16 -11t-3.5 -19zM233 -67
q-22 -13 -27.5 -8.5t-0.5 28.5l67 279q2 10 -3.5 18.5t-15.5 11t-19 -3t-12 -15.5l-66 -279q-13 -56 19 -79.5t83 5.5l252 142q9 5 12 14.5t-2.5 18.5t-15.5 12t-19 -2zM130 395l-88 78q-8 7 -18 6.5t-17 -8.5t-6.5 -18t7.5 -17l88 -78l128 -114q8 -6 18 -5.5t17 8t6.5 17.5
t-7.5 17zM180 514q15 1 31 3q37 4 76 8q13 2 24 3q6 1 9 1q10 1 16.5 9.5t5.5 18.5t-9.5 16.5t-18.5 4.5q-3 0 -9 -1q-11 -1 -23 -2q-40 -5 -76 -9q-16 -2 -31 -3q-31 -3 -56 -5q-10 -1 -17 -9t-6 -18t9 -16.5t18 -6.5q26 3 57 6z" />
    <glyph glyph-name="folder" unicode="&#xe61b;" 
d="M1024 550q0 52 -36.5 88.5t-88.5 36.5h-375l18 -7l-127 124l-7 7h-10h-348h-25v-25v-678q0 -52 36.5 -88.5t87.5 -36.5h738q11 0 18 7t7 17.5t-7 18t-18 7.5h-738q-30 0 -52 22t-22 53v678l-25 -25h348l-17 7l126 -124l7 -7h10h375q31 0 53 -22t22 -53v-443
q0 -10 7 -17.5t17.5 -7.5t18 7.5t7.5 17.5v443zM1016 410v50h-988v-50h988z" />
    <glyph glyph-name="form" unicode="&#xe61c;" 
d="M836 847q30 0 52 -21.5t22 -51.5v-713l7 17l-162 -165l18 8h-585q-30 0 -52 21.5t-22 51.5v878l-25 -25h747zM64 896v-24v-878q0 -51 36.5 -86.5t87.5 -35.5h585h11l7 7l162 165l7 7v10v713q0 51 -36.5 86.5t-87.5 35.5h-747h-25zM736 189q-31 0 -53 -21.5t-22 -51.5
v-146q0 -11 7.5 -18t18 -7t17.5 7t7 18v146q0 10 7.5 17t17.5 7h112q10 0 17.5 7t7.5 17.5t-7.5 17.5t-17.5 7h-112zM775 677q10 0 17.5 7t7.5 17t-7.5 17t-17.5 7h-512q-10 0 -17.5 -7t-7.5 -17t7.5 -17t17.5 -7h512zM775 530q10 0 17.5 7.5t7.5 17.5t-7.5 17t-17.5 7h-512
q-10 0 -17.5 -7t-7.5 -17t7.5 -17.5t17.5 -7.5h512zM775 360q10 0 17.5 7t7.5 17t-7.5 17t-17.5 7h-512q-10 0 -17.5 -7t-7.5 -17t7.5 -17t17.5 -7h512z" />
    <glyph glyph-name="help" unicode="&#xe61f;" 
d="M1024 384q0 139 -68.5 257t-186.5 186.5t-257 68.5t-257 -68.5t-186.5 -186.5t-68.5 -257t68.5 -257t186.5 -186.5t257 -68.5q179 0 319 111q8 7 9 17t-5.5 18.5t-16.5 9.5t-18 -6q-126 -100 -288 -100q-94 0 -179.5 36.5t-147.5 98.5t-98.5 147.5t-36.5 179.5
t36.5 179.5t98.5 147.5t147.5 98.5t179.5 36.5t179.5 -36.5t147.5 -98.5t98.5 -147.5t36.5 -179.5q0 -132 -70 -244q-5 -9 -2.5 -19t11 -15.5t18.5 -3t16 11.5q77 123 77 270zM533 205q14 0 24 -10t10 -25v-9q0 -14 -10 -24t-24 -10v0q-14 0 -24 10t-10 24v9q0 15 10 25
t24 10v0zM375 477q0 -2 1 -6t8.5 -10.5t19 -6.5t18.5 6t8 11l2 6q-2 58 24.5 85t80.5 24q73 -8 75 -81q-5 -33 -54 -85q-65 -65 -65 -117v-35q1 -3 2 -6.5t8 -9t17.5 -5.5t17.5 5t8 10l2 6v24q0 44 62 104q64 59 64 109q-5 136 -142 141q-157 3 -157 -169z" />
    <glyph glyph-name="refresh" unicode="&#xe621;" 
d="M512 896q-139 0 -257 -68.5t-186.5 -186.5t-68.5 -257t68.5 -257t186.5 -186.5t257 -68.5q123 0 231 54.5t180 151t93 216.5q3 17 5 34q1 11 -5.5 19t-16.5 9t-18.5 -5.5t-9.5 -16.5q-1 -16 -4 -31q-29 -165 -158 -273t-297 -108q-94 0 -179.5 36.5t-147.5 98.5
t-98.5 147.5t-36.5 179.5t36.5 179.5t98.5 147.5t147.5 98.5t179.5 36.5q139 0 254.5 -76t169.5 -203q4 -9 14 -13t19.5 0t13 14t-0.5 19q-60 140 -188 224.5t-282 84.5zM958 546l25 25h-259q-10 0 -17.5 -7.5t-7.5 -18t7.5 -17.5t17.5 -7h259q11 0 18 7t7 18v275
q0 10 -7 17.5t-17.5 7.5t-18 -7.5t-7.5 -17.5v-275z" />
    <glyph glyph-name="set" unicode="&#xe623;" 
d="M826 248l-7 -12l8 -12l78 -116l4 31l-139 -135l29 3l-128 76l-10 6l-11 -4q-13 -5 -25 -10l-13 -4l-3 -14l-28 -131l24 19h-197l24 -18l-34 137l-3 13l-12 4q-11 4 -22 10l-12 5l-11 -7l-120 -77l30 -3l-139 136l4 -31l78 125l7 11l-6 11l-10 26l-4 13l-14 2l-135 28
l20 -24v191l-19 -23l141 33l12 3l5 11q5 13 12 25l6 13l-8 12l-73 110l-3 -30l138 136l-30 -3l123 -75l10 -6l12 5l20 8l12 4l3 13l33 133l-23 -19h196l-24 20l29 -136l3 -13l13 -5q15 -6 30 -13l12 -6l11 7l114 72l-30 3l140 -135l-4 31l-76 -120l-7 -11l5 -12
q6 -12 10 -25l5 -12l13 -4l134 -31l-19 24v-192l20 24l-142 -29l-13 -2l-5 -12q-4 -11 -9 -22zM858 260l5 -24l141 29l20 4v20v192v19l-19 4l-134 32l-6 -24l23 8q-5 15 -11 29l-22 -10l20 -13l77 120l10 17l-14 13l-140 135l-14 13l-16 -10l-114 -71l13 -21l11 22
q-17 8 -34 15l-9 -23l24 5l-29 136l-4 19h-20h-196h-19l-5 -19l-33 -133l24 -5l-8 23q-12 -4 -23 -9l9 -23l13 21l-123 74l-16 10l-14 -13l-138 -137l-14 -14l11 -17l73 -110l21 13l-22 11q-7 -14 -13 -28l23 -9l-6 23l-141 -33l-19 -4v-20v-191v-20l20 -4l134 -27l5 24
l-23 -9q5 -14 12 -28l22 10l-21 12l-78 -124l-10 -17l14 -13l139 -136l14 -13l16 10l120 77l-13 20l-10 -22l24 -10l9 22l-23 -5l34 -138l4 -19h19h197h20l4 20l28 131l-24 5l7 -23q15 5 28 11l-9 22l-12 -21l127 -76l16 -9l14 13l139 135l14 14l-11 17l-78 116l-21 -13
l22 -11q6 12 11 24zM731 396q0 86 -60.5 146.5t-146.5 60.5t-146.5 -60.5t-60.5 -146.5t60.5 -146.5t146.5 -60.5q44 0 84 18q9 4 13 13.5t0 18.5t-13.5 12.5t-19.5 -0.5q-30 -13 -64 -13q-65 0 -111.5 46.5t-46.5 112t46.5 112t112 46.5t112 -46.5t46.5 -112.5
q0 -17 -4 -34q-2 -10 3.5 -18.5t15 -10.5t18 3.5t11.5 15.5q4 22 4 44z" />
    <glyph glyph-name="training" unicode="&#xe624;" 
d="M887 773q30 0 51.5 -21.5t21.5 -52.5v-467l24 25h-847q-30 0 -51.5 21.5t-21.5 52.5v467l-24 -25h847zM16 822v-24v-467q0 -51 35.5 -87t85.5 -36h847h24v24v467q0 51 -35.5 87t-85.5 36h-847h-24zM196 -69q-7 -7 -6.5 -17.5t7.5 -17t17 -6.5t17 8l219 242q7 8 6.5 18
t-7.5 17t-17 6.5t-17 -8.5zM798 -102q7 -8 17 -8t17.5 6.5t8 17t-6.5 17.5l-219 242q-7 8 -17 8.5t-17.5 -6.5t-8 -17t6.5 -18zM442 792q0 -8 7 -13.5t17 -5.5t17 5.5t7 13.5v85q0 8 -7 13.5t-17 5.5t-17 -5.5t-7 -13.5v-85zM515 589q10 0 17 7t7 17.5t-7 17.5t-17 7h-356
q-10 0 -17.5 -7t-7.5 -17.5t7.5 -17.5t17.5 -7h356zM515 431q10 0 17 7t7 17.5t-7 17.5t-17 7h-356q-10 0 -17.5 -7t-7.5 -17.5t7.5 -17.5t17.5 -7h356zM680 344q78 61 78 174v161q0 10 -7 17.5t-17 7.5t-17 -7.5t-7 -17.5v-161q0 -89 -59 -136q-19 -14 -41 -23
q-11 -4 -18 -5q-9 -2 -15 -10.5t-4 -18.5t10.5 -16t18.5 -4q39 8 78 39zM753 663q6 8 5 18.5t-8.5 17t-17.5 5.5t-17 -9l-109 -135q-7 -8 -6 -18t9 -16.5t18 -5.5t16 9zM753 695q-7 8 -17 9t-17.5 -5.5t-8.5 -17t5 -18.5l110 -134q6 -8 16 -9t18 5.5t9 16.5t-6 18z" />
    <glyph glyph-name="account" unicode="&#xe664;" 
d="M794 579q0 122 -86.5 209t-208.5 87t-208 -87t-86 -209t86 -209t208 -87t208.5 87t86.5 209zM256 579q0 101 71 172.5t172 71.5t172 -71.5t71 -172.5t-71 -172.5t-172 -71.5t-172 71.5t-71 172.5zM0 -102v-26h26h460h512h26v26q0 85 -41.5 165.5t-111 140t-164 95.5
t-195.5 36q-25 0 -49 -2q-7 -1 6 -9q17 -11 17 -19q8 1 13 -10.5t13 -11.5q91 0 176.5 -32t147.5 -85t99.5 -123.5t37.5 -144.5l25 25h-512h-460l25 -25q0 102 60 190t164 141q10 4 13 14.5t-1.5 20t-14.5 12.5t-20 -1q-116 -59 -184 -159.5t-68 -217.5z" />
    <glyph glyph-name="atm" unicode="&#xe626;" 
d="M786.5 248q15.5 0 26.5 29.5t11 71t-11 71t-26.5 29.5t-26.5 -29.5t-11 -71t11 -71t26.5 -29.5zM462.5 198q15.5 0 26.5 25.5t11 62t-11 62t-26.5 25.5t-26.5 -25.5t-11 -62t11 -62t26.5 -25.5zM0 323q0 -92 40.5 -175.5t109.5 -144t163.5 -96t198.5 -35.5t198.5 35.5
t163.5 96t109.5 144t40.5 175.5t-40.5 176t-109.5 144t-163.5 95.5t-198.5 35.5h5q-3 2 -11 10q-26 23 -47 37q-85 54 -222 54q-10 0 -17.5 -7.5t-7.5 -18t7.5 -17.5t17.5 -7q123 0 195 -47q3 -2 21 -16.5t34.5 -26t24.5 -11.5q126 0 232.5 -53.5t168 -146t61.5 -201
t-61.5 -201t-168 -146.5t-232.5 -54t-232.5 54t-168 146.5t-61.5 200.5q0 109 63 202.5t172 146.5q9 5 12.5 15t-1 19t-14.5 12.5t-19 -1.5q-121 -59 -192 -164.5t-71 -229.5z" />
    <glyph glyph-name="clock" unicode="&#xe615;" 
d="M1024 384q0 139 -68.5 257t-186.5 186.5t-257 68.5t-257 -68.5t-186.5 -186.5t-68.5 -257t68.5 -257t186.5 -186.5t257 -68.5q172 0 309 104q8 6 9.5 16t-4.5 18t-16 9.5t-18 -4.5q-124 -94 -280 -94q-94 0 -180 36.5t-148 98.5t-98.5 148t-36.5 180t36.5 180t98.5 148
t148 98.5t180 36.5t180 -36.5t148 -98.5t98.5 -148t36.5 -180q0 -144 -81 -262q-5 -8 -3.5 -18t10 -15.5t18.5 -4t16 10.5q89 130 89 289zM488 286q0 -10 7 -17t17 -7t17 7t7 17v366q0 10 -7 17.5t-17 7.5t-17 -7.5t-7 -17.5v-366zM482 424q-7 8 -17 8.5t-17.5 -6
t-8.5 -16.5t6 -18l171 -195q6 -7 16 -8t18 6t8.5 17t-6.5 17z" />
    <glyph glyph-name="attachment" unicode="&#xe627;" 
d="M472 777l-379 -399q-72 -75 -71.5 -181.5t74.5 -180.5l3 -4q74 -75 178.5 -75.5t178.5 73.5l500 499q59 59 60 143.5t-56 144.5l-19 -17l-18 -18l4 -4l19 17l18 18q-58 61 -140 60.5t-140 -62.5l-474 -508q-29 -31 -27.5 -73t32.5 -70l11 -11q31 -29 73 -27.5t70 32.5
l369 395q7 8 7 18.5t-8 17.5t-18.5 6.5t-17.5 -7.5l-369 -396q-14 -15 -35 -15.5t-36 13.5l-12 11q-15 14 -15.5 35t13.5 36l474 509q43 45 103 45.5t103 -44.5q11 -11 25 -7t18 16.5t-6 25.5l-4 4q-11 12 -25 7.5t-18 -17t6 -25.5q44 -45 43 -109t-46 -108l-500 -499
q-59 -59 -142.5 -58.5t-142.5 59.5l-3 4q-59 60 -60 145.5t57 146.5l380 399q7 7 7 17.5t-8 18t-18.5 7t-17.5 -7.5v0z" />
    <glyph glyph-name="3column" unicode="&#xe628;" 
d="M307 794v-858h51v858h-51v0zM640 794v-858h51v858h-51v0zM896 -13h-768q-32 0 -54.5 22.5t-22.5 54.5v742l-25 -25h870q32 0 54.5 -22.5t22.5 -54.5v-655q0 -10 7.5 -17.5t18 -7.5t18 7.5t7.5 17.5v655q0 53 -37.5 90.5t-90.5 37.5h-870q-11 0 -18.5 -7.5t-7.5 -18.5
v-742q0 -53 37.5 -90.5t90.5 -37.5h768q11 0 18.5 7.5t7.5 18t-7.5 18t-18.5 7.5v0z" />
    <glyph glyph-name="4column" unicode="&#xe629;" 
d="M896 -13h-768q-32 0 -54.5 22.5t-22.5 54.5v742l-25 -25h870q32 0 54.5 -22.5t22.5 -54.5v-655q0 -10 7.5 -17.5t18 -7.5t18 7.5t7.5 17.5v655q0 53 -37.5 90.5t-90.5 37.5h-870q-11 0 -18.5 -7.5t-7.5 -18.5v-742q0 -53 37.5 -90.5t90.5 -37.5h768q11 0 18.5 7.5t7.5 18
t-7.5 18t-18.5 7.5v0zM230 794v-858h52v858h-52v0zM486 794v-858h52v858h-52v0zM742 794v-858h52v858h-52v0z" />
    <glyph glyph-name="discount" unicode="&#xe62a;" 
d="M856 335l-399 -372q-22 -21 -54 -21t-54 22l-262 254q-22 21 -22 51t21 52l480 491l-17 -7h329q30 0 51.5 -21.5t21.5 -52.5v-317q0 -10 7 -17t17 -7t17.5 7t7.5 17v317q0 51 -36 86.5t-86 35.5h-329q-11 0 -18 -7l-480 -491q-35 -36 -34.5 -86.5t36.5 -85.5l262 -254
q36 -35 87.5 -35.5t87.5 33.5l399 372q8 7 8 17t-7 17.5t-17 7.5t-17 -6v0zM744 488q45 0 77 32t32 77.5t-32 77.5t-77.5 32t-77.5 -32t-32 -77.5t32 -77.5t78 -32v0zM744 536q-26 0 -43.5 18t-17.5 43.5t17.5 43t43 17.5t43.5 -17.5t18 -43t-18 -43.5t-43 -18v0z" />
    <glyph glyph-name="service" unicode="&#xe62b;" 
d="M538 323q97 0 165.5 69.5t68.5 167.5t-68.5 167.5t-166 69.5t-166 -69.5t-68.5 -167.5t68.5 -167.5t166.5 -69.5v0zM538 366q-80 0 -136 56.5t-56 137t56 137.5t135.5 57t136 -57t56.5 -137.5t-56.5 -137t-135.5 -56.5v0zM1002 -128q0 100 -39 191.5t-104.5 157.5
t-156 105.5t-190 39.5t-190 -39.5t-156 -105.5t-104 -157.5t-38.5 -191.5h42q0 92 35.5 175.5t95 144t142.5 96t173.5 35.5t173.5 -35.5t142.5 -96t95 -144t35.5 -175.5h43v0zM234 323q36 0 61.5 25.5t25.5 62t-25.5 62t-61.5 25.5t-61.5 -25.5t-25.5 -62t25.5 -62
t61.5 -25.5v0zM234 366q-19 0 -32 13t-13 31.5t13 32t31.5 13.5t31.5 -13.5t13 -32t-13 -31.5t-31 -13v0zM831 376q3 1 17.5 5.5t21.5 7.5q1 0 2 1q16 5 35 12l15 5l14 5v15v187v13l-12 6q-4 2 -11 5q-13 7 -24 13q-2 1 -4 1q-13 7 -21 12q-4 2 -6 4q2 -2 4 -7
q-44 103 -135.5 169t-194.5 66q-96 0 -177 -47.5t-128 -129.5t-47 -178q0 -35 6 -69l42 8q-6 30 -6 61q0 129 91 221t219 92q90 0 171 -59t120 -151q3 -7 9.5 -11t33.5 -18q1 -1 3 -2q12 -6 25 -13q7 -3 12 -5l-12 19v-187l14 20q-6 -2 -16 -5q-18 -7 -34 -12q-1 -1 -3 -1
q-21 -8 -33 -13q-7 -3 -11 -4q-3 -2 -5 -3q-1 -1 -4 -2q-15 -8 -7 -24q5 -9 19 -9.5t17 2.5z" />
    <glyph glyph-name="print" unicode="&#xe62c;" 
d="M24 630h878q30 0 51.5 -21.5t21.5 -51.5v-440l25 24h-147l25 -24v97v25h-25h-682h-25v-25v-97l25 24h-49q-30 0 -51.5 21.5t-21.5 52.5v440l-25 -25v0zM24 679h-24v-24v-440q0 -51 35.5 -87t86.5 -36h49h24v25v97l-24 -24h682l-24 24v-97v-25h24h147h24v25v440
q0 50 -35.5 86t-86.5 36h-878v0zM756 -104l24 25h-536l24 -25v224q0 10 -7 17t-17 7t-17.5 -7t-7.5 -17v-224q0 -10 7.5 -17t17.5 -7h536q10 0 17.5 7t7.5 17v224q0 10 -7.5 17t-17.5 7t-17 -7t-7 -17v-224zM207 459h317v49h-317v-49v0zM219 655v195l-24 -24h634l-24 24
v-195h48v195v25h-24h-634h-24v-25v-195h48v0z" />
    <glyph glyph-name="box" unicode="&#xe62d;" 
d="M58 634l432 -244q12 -7 24 0l431 244q13 8 12.5 22.5t-13.5 21.5l-431 215q-11 6 -22 0l-432 -215q-13 -7 -13.5 -21.5t12.5 -22.5v0zM82 677l-1 -43l432 216h-22l431 -216l-1 43l-431 -245h24l-432 245v0zM477 391v-470q0 -14 12.5 -21t24.5 0l460 260q13 7 13 21v317
q0 10 -7.5 17t-17.5 7t-17 -7t-7 -17v-317l12 21l-460 -259l36 -22v470q0 10 -7 17.5t-17 7.5t-17.5 -7.5t-7.5 -17.5v0zM514 -58l-431 260l12 -21v460q0 11 -7.5 18t-17.5 7t-17 -7t-7 -18v-460q0 -14 12 -21l431 -260q9 -5 19 -2.5t15 11t2.5 18.5t-11.5 15v0zM173 448
l144 -87q8 -5 18 -2.5t15 11.5t2.5 18.5t-10.5 14.5l-144 87q-9 5 -18.5 2.5t-15 -11t-3 -18.5t11.5 -15v0z" />
    <glyph glyph-name="process" unicode="&#xe62e;" horiz-adv-x="1028" 
d="M965 354q-7 152 -105 268t-245 150q-10 2 -18.5 -3.5t-11 -15.5t3 -19t15.5 -11q131 -30 217.5 -133.5t93.5 -237.5q1 -11 8.5 -18t18 -6.5t17.5 8.5t6 18v0zM387 765q-144 -42 -235 -162.5t-91 -271.5q0 -67 19 -129q3 -10 12 -15t19 -2t15 12t2 19q-17 56 -17 115
q0 134 81 241.5t209 144.5q10 3 15 12t2 19t-12 15t-19 2v0zM196 8q64 -62 146 -96t172 -34q96 0 183.5 39t152.5 111q7 7 6 17.5t-8.5 17.5t-18 6.5t-17.5 -8.5q-57 -63 -134.5 -98t-163.5 -35q-80 0 -153 30t-129 86q-8 7 -18.5 7t-17.5 -7.5t-7 -18t7 -17.5v0zM498 611
q55 0 93.5 38.5t38.5 93t-38.5 93.5t-93 39t-93.5 -39t-39 -93.5t39 -93t93 -38.5v0zM498 661q-34 0 -58 24t-24 58t24 58t58 24t58 -24t24 -58t-24 -58t-58 -24v0zM132 -30q55 0 93.5 38.5t38.5 93t-38.5 93.5t-93.5 39t-93.5 -39t-38.5 -93.5t38.5 -93t93.5 -38.5v0z
M132 20q-34 0 -58 24t-24 57.5t24 57.5t58 24t58 -24t24 -57.5t-24 -57.5t-58 -24v0zM895 0q55 0 93.5 39t38.5 93.5t-38.5 93t-93 38.5t-93.5 -38.5t-39 -93t39 -93.5t93 -39v0zM895 50q-34 0 -58 24t-24 58t24 58t58 24t58 -24t24 -58t-24 -58t-58 -24v0z" />
    <glyph glyph-name="bags" unicode="&#xe62f;" 
d="M91 360q0 90 64.5 154.5t155.5 64.5h390q91 0 155 -64t64 -155v-415q0 -10 -7 -17t-17 -7h-780q-10 0 -17.5 7t-7.5 17v415v0zM43 360v-415q0 -30 21.5 -51.5t51.5 -21.5h780q30 0 51.5 21.5t21.5 51.5v415q0 111 -78.5 189.5t-189.5 78.5h-390q-111 0 -189.5 -78.5
t-78.5 -189.5v0zM286 433q0 10 7.5 17t17.5 7t17 -7t7 -17v-73q0 -10 -7 -17.5t-17 -7.5t-17.5 7t-7.5 18v73v0zM238 433v-73q0 -31 21 -52.5t51.5 -21.5t52 21.5t21.5 52.5v73q0 30 -21.5 51.5t-52 21.5t-51.5 -21.5t-21 -51.5v0zM652 433q0 10 7 17t17.5 7t17.5 -7t7 -17
v-73q0 -10 -7 -17.5t-17.5 -7.5t-17.5 7t-7 18v73v0zM603 433v-73q0 -31 21.5 -52.5t52 -21.5t52 21.5t21.5 52.5v73q0 30 -21.5 51.5t-52 21.5t-52 -21.5t-21.5 -51.5v0zM335 482v195q0 70 50 120t121 50t121 -50t50 -120v-195h48v195q0 90 -64 154.5t-155 64.5
t-155.5 -64.5t-64.5 -154.5v-195h49v0zM79 43h683q10 0 17 7t7 17t-7 17t-17 7h-683q-10 0 -17 -7t-7 -17t7 -17t17 -7v0z" />
    <glyph glyph-name="electronics" unicode="&#xe630;" 
d="M66 742h798q29 0 49.5 -20.5t20.5 -49.5v-540l24 24h-798q-29 0 -49.5 20.5t-20.5 49.5v540l-24 -24v0zM66 789h-23v-23v-540q0 -48 34 -82.5t83 -34.5h798h23v23v540q0 49 -34 83t-83 34h-798v0zM408 130l-70 -164q-4 -9 -0.5 -18t12.5 -13t18 -0.5t13 12.5l70 164
q4 9 0.5 18t-12.5 13t-18 0.5t-13 -12.5v0zM587 47l82 -105q6 -8 16 -9t17.5 5t8.5 15.5t-4 17.5l-83 105q-6 8 -15.5 9t-17 -5t-9 -15.5t4.5 -17.5v0zM242 -79h563q10 0 17 7t7 16.5t-7 16.5t-17 7h-563q-10 0 -16.5 -7t-6.5 -16.5t6.5 -16.5t16.5 -7v0z" />
    <glyph glyph-name="gifts" unicode="&#xe631;" 
d="M151 340v-328q0 -27 19.5 -46t46.5 -19h568q27 0 46 19t19 46v317h-44v-317q0 -9 -6 -15.5t-15 -6.5h-568q-9 0 -15.5 6.5t-6.5 15.5v328h-44v0zM544 -31v622h-43v-622h43v0zM86 569h742q27 0 46.5 -19t19.5 -46v-153l21 22h-742q-27 0 -46 19t-19 46v153l-22 -22v0z
M86 613h-22v-22v-153q0 -45 32 -77t77 -32h742h22v22v153q0 45 -32 77t-77 32h-742v0zM457 635h131l-22 21v-65l22 22h-131l22 -22v65l-22 -21v0zM457 678h-22v-22v-65v-22h22h131h22v22v65v22h-22h-131v0zM552 645q1 2 5 7q6 10 14 21q23 34 45 63q13 16 24 30
q20 24 36.5 39t20.5 15q26 0 64 -24t60 -54q9 -12 -10 -53q-4 -8 -1 -16.5t11.5 -12.5t17 -1t11.5 11q31 65 6 98q-29 39 -75.5 67.5t-83.5 28.5q-32 0 -91 -70q-12 -15 -25 -32q-22 -29 -46 -64q-8 -11 -15 -22q-3 -5 -5 -8q-5 -7 -3 -16t9.5 -14t16.5 -3t14 10v0zM538 668
q-2 3 -5 8q-7 11 -15 22q-24 35 -46 64q-13 17 -25 32q-59 70 -91 70q-37 0 -83.5 -28.5t-75.5 -67.5q-25 -33 5 -97q9 -19 23 -41q12 -19 26 -38q7 -9 12 -15l33 28q-4 5 -10 14q-13 17 -24 34q-13 20 -20 37q-19 40 -10 52q22 30 60 54t64 24q4 0 20.5 -15t36.5 -39
q11 -14 24 -30q22 -29 45 -63q8 -11 14 -21q4 -5 5 -7l37 23v0z" />
    <glyph glyph-name="lights" unicode="&#xe632;" 
d="M680 -67q-9 0 -23 -1q-29 0 -57 -1q-40 -1 -74 -1q-67 -1 -105 -1q-22 1 -33 1q-5 1 -7 1q1 0 2 -1q14 -6 14 -21v93v77v42q0 11 -8 18q-4 3 -9 8q-12 11 -25 24q-40 40 -74 81q-68 84 -92 154q-12 35 -12 65q0 96 47.5 178t129 129.5t178 47.5t178 -47.5t129 -129.5
t47.5 -178q0 -27 -11 -58q-25 -73 -105 -161q-37 -41 -82 -81q-14 -12 -27 -23q-6 -5 -10 -8q-9 -7 -9 -19v-114l24 24h-281q-10 0 -17.5 -7t-7.5 -17.5t7.5 -17.5t17.5 -7h281q10 0 17 7t7 18v114l-9 -20q4 4 11 9q14 12 28 25q47 41 86 84q87 96 116 178q13 39 13 74
q0 110 -54 203t-147 147t-202.5 54t-202.5 -54t-147 -147t-54 -203q0 -38 15 -81q27 -78 101 -169q35 -43 77 -85l25 -25q7 -6 10 -9l-8 19v-42v-77v-93q0 -17 16 -24q3 -1 7 -2q5 -1 13 -1q13 -1 36 -2q39 0 107 1q34 0 74 1q29 1 57 2h23q10 1 17 8t7 17.5t-7.5 17
t-17.5 6.5v0zM380 344l122 -122q7 -7 16.5 -7.5t17.5 6.5l122 110q7 6 8 16.5t-6 18t-17 8t-18 -6.5l-122 -110l34 -1l-123 122q-7 8 -17 8t-17 -7.5t-7 -17.5t7 -17v0zM495 227v-208h49v208h-49v0z" />
    <glyph glyph-name="auto" unicode="&#xe633;" 
d="M244 -24q50 0 86 35.5t36 86t-36 86t-86.5 35.5t-86 -35.5t-35.5 -86t35.5 -86t86.5 -35.5v0zM244 24q-30 0 -51.5 21.5t-21.5 52t21.5 52t51.5 21.5t51.5 -21.5t21.5 -52t-21.5 -52t-51.5 -21.5v0zM805 -24q50 0 85.5 35.5t35.5 86t-35.5 86t-86 35.5t-86 -35.5
t-35.5 -86t35.5 -86t86.5 -35.5v0zM805 24q-31 0 -52.5 21.5t-21.5 52t21.5 52t52 21.5t52 -21.5t21.5 -52t-21.5 -52t-51.5 -21.5v0zM1012 85v232q0 51 -35.5 86.5t-86.5 35.5h-854q-10 0 -17 -7t-7 -17v-220q0 -51 35.5 -86.5t86.5 -35.5q10 0 17 7t7 17t-7 17.5t-17 7.5
q-30 0 -51.5 21t-21.5 52v220l-25 -25h854q30 0 51.5 -21.5t21.5 -51.5v-232q0 -10 7 -17t17.5 -7t17.5 7t7 17v0zM360 73h335q10 0 17 7t7 17t-7 17.5t-17 7.5h-335q-10 0 -17 -7.5t-7 -17.5t7 -17t17 -7v0zM289 654l-21 -11h354l-17 7l232 -232l59 5l-257 262l-7 7h-10
h-354h-13l-7 -12l-163 -257h58zM463 667v-244h49v244h-49v0z" />
    <glyph glyph-name="browse" unicode="&#xe634;" 
d="M1012 395l-1 3q-220 327 -487 327q-60 0 -121.5 -18t-110 -46.5t-94 -64.5t-78 -69.5t-58.5 -64.5t-37.5 -47.5t-12.5 -19.5q-16 -29 0 -59l2 -4q240 -320 498 -320q105 0 208 52q60 32 90 57q7 7 7 18t-7.5 18.5t-18.5 7.5q-7 0 -14 -6q-61 -40 -94 -56
q-85 -40 -171 -40q-232 0 -456 297q-2 6 1 12q2 3 12 17.5t34.5 43.5t54 59.5t71.5 63.5t86 59t99.5 43t109.5 17q240 0 444 -304q0 -2 1 -3l-2 -4q-11 -16 -49 -63t-47 -57q-11 -12 -11 -20q0 -11 7.5 -18.5t18 -7.5t18.5 8q7 7 50 59.5t55 70.5l1 2q20 23 2 57v0zM393 372
q0 -47 36 -82t83 -35q48 0 83 34.5t35 82t-35 82t-83 34.5q-47 0 -83 -35t-36 -81v0zM580 372q0 -26 -20.5 -46t-47.5 -20t-47.5 20t-20.5 45.5t20.5 45.5t47.5 20t47.5 -20t20.5 -45v0z" />
    <glyph glyph-name="atm-away" unicode="&#xe635;" 
d="M784 269v0q-15 0 -26 29.5t-11 71t11 70.5t26.5 29t26.5 -29t11 -70.5t-11 -71t-27 -29.5v0zM507 230v0q-16 0 -27 25.5t-11 62t11 62t26.5 25.5t26.5 -25.5t11 -62t-11 -62t-26 -25.5v0zM298 725q-112 -55 -179.5 -152t-70.5 -211v-11q0 -10 7 -17t16.5 -7t16.5 7t7 17
v10q3 100 63 186t161 136q9 4 12 13.5t-1 18t-13.5 12t-18.5 -1.5v0zM496 -76q20 -2 40 -2q132 0 244.5 57t178 156t65.5 216t-65.5 215.5t-178 155.5t-244.5 57h4q-2 2 -10 9q-24 22 -45 35q-80 52 -211 52q-10 0 -17 -7t-7 -17t7 -17t17 -7q117 0 186 -44q2 -2 19.5 -16
t33.5 -24.5t23 -10.5q120 0 221.5 -51.5t160 -139t58.5 -190.5t-58.5 -191t-160 -139t-221.5 -51q-19 0 -37 1q-10 1 -17.5 -5.5t-8 -16.5t6 -17.5t16.5 -7.5v0zM238 -126q99 0 168.5 70t69.5 168.5t-69.5 168.5t-168.5 70t-168.5 -70t-69.5 -168.5t69.5 -168.5t168.5 -70v0
zM238 -78q-79 0 -134.5 56t-55.5 135t55.5 134.5t134.5 55.5t135 -55.5t56 -134.5t-56 -135t-135 -56v0zM214 217v-142q0 -10 7 -17t17 -7t17 7t7 17v142q0 10 -7 17t-17 7t-17 -7t-7 -17v0zM304 62l-67 76q-6 7 -16 8t-17.5 -5.5t-8 -16.5t5.5 -18l67 -76q6 -7 16 -7.5
t17.5 6t8 16t-5.5 17.5v0z" />
    <glyph glyph-name="scanning" unicode="&#xe636;" 
d="M910 477q-9 0 -15 6t-6 15v259q0 13 -9.5 22.5t-22.5 9.5q-236 0 -258 -1q-8 0 -14.5 5t-8.5 13q-1 9 4 16t14 9q6 1 263 1q31 0 53 -22t22 -53v-259q0 -9 -6.5 -15t-15.5 -6v0zM85 477q-8 0 -14.5 6t-6.5 15v259q0 31 22 53t53 22q257 0 263 -1q9 -2 14 -9t4 -16
q-2 -8 -8.5 -13t-14.5 -5q-22 1 -258 1q-13 0 -22.5 -9.5t-9.5 -22.5v-259q0 -9 -6.5 -15t-15.5 -6v0zM857 -78q-257 0 -263 1q-9 2 -14 9t-4 16q2 8 8.5 13t14.5 5q22 -1 258 -1q13 0 22.5 9.5t9.5 22.5v259q0 9 6 15t15 6t15.5 -6t6.5 -15v-259q0 -31 -22 -53t-53 -22v0z
M139 -78q-31 0 -53 22t-22 53v259q0 9 6.5 15t15 6t15 -6t6.5 -15v-259q0 -13 9.5 -22.5t22.5 -9.5q236 0 258 1q8 0 14.5 -5t8.5 -13q1 -9 -4 -16t-14 -9q-6 -1 -263 -1v0zM984 362h-941q-9 0 -15.5 6.5t-6.5 15.5t6.5 15t15.5 6h941q8 0 14.5 -6t6.5 -15t-6.5 -15.5
t-14.5 -6.5v0z" />
    <glyph glyph-name="compare" unicode="&#xe637;" 
d="M247 101h-3q-18 3 -22 20l-109 493q-3 10 3 19t16.5 11.5t19.5 -3t11 -16.5l94 -422l218 428q5 10 15.5 13t20 -1.5t12.5 -15t-2 -19.5l-251 -493q-7 -14 -23 -14zM669 102q-7 0 -14 1q-90 4 -135 57q-37 43 -31 103l1 5q1 10 9.5 16.5t19.5 5t17.5 -10t4.5 -18.5v-4
q-4 -37 18 -63q31 -36 98 -40q61 -3 108.5 24t61.5 64q7 13 4.5 25.5t-7 21.5t-14 17t-16.5 12.5t-15 8.5q-10 5 -54 17q-33 9 -52 15t-47.5 18t-47 27.5t-28.5 34.5q-18 36 -2 79q29 76 96 106q38 17 86.5 16.5t96.5 -19.5q26 -10 45 -29.5t27.5 -41t12 -40.5t1.5 -35
q-1 -10 -9 -17t-18.5 -6t-17.5 9t-6 19v0q-1 1 0 8t-2 19t-7.5 24t-16.5 24t-28 18q-81 31 -143 3q-47 -21 -68 -77q-8 -21 0 -36q8 -16 35.5 -31t49 -21.5t57.5 -16.5q48 -13 63 -20q51 -26 71 -66.5t2 -84.5q-19 -49 -75.5 -85t-130.5 -36zM1024 681v-518q0 -10 -7.5 -18
t-18 -8t-18 8t-7.5 18v518q0 25 -18.5 43t-43.5 18h-799q-25 0 -43 -16.5t-18 -41.5v-598q0 -25 18 -43t43 -18h743q10 0 17.5 -7.5t7.5 -18t-7.5 -18t-17.5 -7.5h-743q-46 0 -79 33t-33 79v598q0 46 32.5 78t79.5 32h799q46 0 79.5 -33t33.5 -80z" />
    <glyph glyph-name="filter" unicode="&#xe638;" 
d="M1024 776.5q0 -49.5 -35 -84.5l-323 -308v-486q0 -11 -7.5 -18.5t-18.5 -7.5t-18.5 7.5t-7.5 18.5v497q0 12 8 19l331 315q20 19 20 47.5t-20 48.5t-49 20h-784q-29 0 -49 -20t-20 -49q0 -28 20 -48l305 -315q8 -7 8 -18v-369q0 -11 -7.5 -18.5t-18 -7.5t-18 7.5
t-7.5 18.5v358l-298 308q-35 35 -35 84.5t35 84.5t85 35h784q50 0 85 -35t35 -84.5z" />
    <glyph glyph-name="pin" unicode="&#xe639;" horiz-adv-x="1025" 
d="M51 -128q-21 0 -36 15q-13 14 -14.5 32.5t9.5 33.5l213 289l-167 167q-12 12 -14 29.5t6 32.5l7.5 10t15 17t23 20t32 18t41 13.5t51 4t60.5 -7.5q2 -1 8 -1q13 -1 21 -2q24 -4 63 13.5t76 49.5q36 30 57 62.5t21 57.5v23v35.5t8 39.5t24 38q31 32 75 34t78 -26
q1 -1 3 -2v0q110 -108 279 -279q34 -33 34 -80.5t-34 -81.5q-16 -16 -38 -24t-40 -8h-35q-16 1 -23 1q-48 0 -104 -61q-37 -40 -59.5 -86.5t-20.5 -72.5q3 -25 4 -31q8 -30 8 -58.5t-4.5 -50t-14 -40.5t-18.5 -31t-19.5 -23t-16 -15t-10.5 -7q-15 -9 -32.5 -7t-30.5 14
l-178 179q-7 7 -7 18t7.5 18.5t18 7.5t17.5 -8l179 -178q3 2 6.5 5t11.5 10.5t14.5 17t13 24t9.5 30.5t2.5 38t-6.5 46q-1 5 -4 36q-4 39 22.5 95.5t69.5 103.5q71 77 142 77q8 0 24 -1q29 -1 46.5 2t29.5 15q19 19 19 45t-19 45q-261 261 -279 278q-18 15 -42.5 13.5
t-41.5 -18.5q-12 -12 -15 -29.5t-2 -45.5q1 -16 1 -25q0 -36 -26 -78.5t-71 -80.5q-42 -36 -91 -58.5t-89 -16.5q-7 1 -17 2q-6 0 -10 1q-3 0 -7 1q-31 6 -53.5 7t-42.5 -5.5t-32.5 -13t-23 -16.5t-14.5 -15t-7 -9l183 -182q16 -15 2 -33l-226 -306l239 174q8 7 18.5 5
t17 -10.5t4.5 -19t-10 -16.5l-239 -174q-13 -10 -30 -10z" />
    <glyph glyph-name="history" unicode="&#xe63a;" 
d="M66 510q-9 0 -15.5 6.5t-6.5 15.5v256q0 8 6.5 14.5t15.5 6.5t15 -6.5t6 -14.5v-256q0 -9 -6 -15.5t-15 -6.5zM300 510h-234q-9 0 -15.5 6.5t-6.5 15t6.5 15t15.5 6.5h234q9 0 15.5 -6.5t6.5 -15t-6.5 -15t-15.5 -6.5zM514 276q-9 0 -15.5 6t-6.5 15v384q0 9 6.5 15
t15.5 6t15 -6t6 -15v-384q0 -9 -6 -15t-15 -6zM635 211q-10 0 -16 7l-186 213q-6 6 -5 15t7.5 15t15.5 5t14 -7l186 -213q6 -6 5.5 -15t-7.5 -15q-6 -5 -14 -5zM513.5 -87q-95.5 0 -182 37t-149.5 100t-100.5 150t-37.5 182q0 9 6.5 15.5t15.5 6.5t15 -6.5t6 -15.5
q0 -115 57 -213.5t155.5 -155.5t214 -57t214 57t155.5 155.5t57 214t-57 214t-155.5 155.5t-213.5 57q-130 0 -237.5 -72t-157.5 -192q-3 -8 -11 -11.5t-16.5 0t-12 11.5t0.5 16q54 132 172.5 211.5t261.5 79.5q95 0 182 -37.5t150 -100.5t100 -149.5t37 -182t-37 -182.5
t-100 -150t-150 -100t-182.5 -37z" />
    <glyph glyph-name="similar-product" unicode="&#xe63b;" horiz-adv-x="1025" 
d="M302 391l-147 88q-8 6 -18 3.5t-15.5 -11.5t-3 -19t11.5 -15l147 -89q9 -5 19 -2.5t15 11.5t2.5 19t-11.5 15zM459 -125q10 -3 19 2q-9 -5 -19 -2zM302 391l-147 88q-8 6 -18 3.5t-15.5 -11.5t-3 -19t11.5 -15l147 -89q9 -5 19 -2.5t15 11.5t2.5 19t-11.5 15zM302 391
l-147 88q-8 6 -18 3.5t-15.5 -11.5t-3 -19t11.5 -15l147 -89q9 -5 19 -2.5t15 11.5t2.5 19t-11.5 15zM302 391l-147 88q-8 6 -18 3.5t-15.5 -11.5t-3 -19t11.5 -15l147 -89q9 -5 19 -2.5t15 11.5t2.5 19t-11.5 15zM302 391l-147 88q-8 6 -18 3.5t-15.5 -11.5t-3 -19
t11.5 -15l147 -89q9 -5 19 -2.5t15 11.5t2.5 19t-11.5 15zM302 391l-147 88q-8 6 -18 3.5t-15.5 -11.5t-3 -19t11.5 -15l147 -89q9 -5 19 -2.5t15 11.5t2.5 19t-11.5 15zM478 -123q-9 -5 -19 -2q10 -3 19 2zM491 -58v442l389 221l40 25q8 5 11 16q2 17 -14 25l-440 220
q-11 6 -23 0l-440 -220q-14 -9 -14 -37v-470q0 -14 12 -21q431 -261 438 -264q18 -9 32 -2l144 83q9 6 11.5 16t-2.5 19q-5 10 -15.5 12.5t-19.5 -2.5l-99 -58v1zM440 384v-441l-390 235v428zM466 428l-388 219l388 194l387 -194zM813 -21l202 121q9 6 9 17v222q0 11 -12 16
l-5 3h-2h1l-196 98q-8 4 -17 0l-196 -98q-18 -7 -18 -24v-217q0 -11 9 -17q201 -120 202 -120q0 -1 3.5 -2.5t8.5 -2t11 3.5zM782 28l-165 99v179l165 -93v-185zM802 246l-161 91l161 81l160 -81zM986 127l-165 -99v185l165 93v-179z" />
    <glyph glyph-name="link" unicode="&#xe63c;" horiz-adv-x="1025" 
d="M331.5 564.5q-8.5 -8.5 -8.5 -20t9 -20.5l321 -321q9 -9 20.5 -9t20 8.5t8.5 20t-8 20.5l-322 322q-9 8 -20.5 8t-20 -8.5zM96 836l-36 -36q-60 -60 -60 -145t60 -145l127 -127q46 -46 110.5 -56.5t120.5 16.5q1 0 1 0.5t1 0.5h1v0q4 2 7 6q9 8 9 20t-9 20q-14 15 -33 6
v0q-42 -20 -90 -12t-82 43l-120 119q-45 45 -45 109t45 109l29 29q45 45 109 45t109 -45l119 -120q35 -35 43 -83.5t-13 -91.5v0v0v0q-7 -18 6 -31q9 -8 21 -8t20 8q4 4 6 8v0q28 57 18 122t-57 112l-127 127q-60 60 -145 60t-145 -60zM963 -31l-36 -36q-60 -60 -144.5 -60
t-144.5 60l-127 126q-47 47 -57.5 111.5t17.5 120.5v0.5t0.5 1t0.5 1.5v0q2 4 5 7q8 8 20 8t21 -8q14 -15 5 -33v0q-20 -42 -11.5 -90t42.5 -82l120 -120q45 -45 108.5 -45t108.5 45l29 29q45 45 45 108.5t-45 108.5l-119 120q-35 35 -84 43t-91 -13v0v0v0q-18 -7 -31 6
q-9 8 -9 20t9 21q4 3 7 5v0q57 29 122.5 18.5t112.5 -57.5l126 -127q60 -60 60 -144.5t-60 -144.5z" />
    <glyph glyph-name="cut" unicode="&#xe64a;" 
d="M996 57h-100v483q0 12 -8.5 20.5t-20 8.5t-20 -8.5t-8.5 -20.5v-483h-614l705 705q9 8 9 20t-8.5 20.5t-20.5 8.5t-20 -9l-705 -705v614h469q12 0 20.5 8.5t8.5 20t-8.5 20t-20.5 8.5h-469v100q0 11 -8.5 19.5t-20 8.5t-20 -8.5t-8.5 -19.5v-100h-100q-11 0 -19.5 -8.5
t-8.5 -20t8.5 -20t19.5 -8.5h100v-683q0 -11 8.5 -19.5t19.5 -8.5h683v-100q0 -11 8.5 -19.5t20 -8.5t20 8.5t8.5 19.5v100h100q11 0 19.5 8.5t8.5 20t-8.5 20t-19.5 8.5z" />
    <glyph glyph-name="table" unicode="&#xe63e;" 
d="M998 552q11 0 18.5 7.5t7.5 18t-7.5 18.5t-18.5 8h-972q-11 0 -18.5 -8t-7.5 -18.5t7.5 -18t18.5 -7.5h972v0zM359 806q0 11 -7.5 18.5t-18.5 7.5t-18.5 -7.5t-7.5 -18.5v-832q0 -10 7.5 -17.5t18.5 -7.5t18.5 7.5t7.5 17.5v832v0zM998 345q11 0 18.5 7.5t7.5 18
t-7.5 18.5t-18.5 8h-972q-11 0 -18.5 -8t-7.5 -18.5t7.5 -18t18.5 -7.5h972v0zM998 138q11 0 18.5 7.5t7.5 18.5t-7.5 18.5t-18.5 7.5h-972q-11 0 -18.5 -7.5t-7.5 -18.5t7.5 -18.5t18.5 -7.5h972v0zM928 189zM882 832h-854h-28v-29v-722q0 -60 41.5 -102.5t100.5 -42.5h854
h28v29v260q0 12 -8.5 20.5t-20 8.5t-20 -8.5t-8.5 -20.5v-231h-825q-35 0 -60 25.5t-25 61.5v693h825q35 0 60 -25.5t25 -61.5v-311q1 -11 9 -19t19.5 -8t20 8t8.5 19v311q0 60 -41.5 102.5t-100.5 42.5zM692 806q0 11 -7.5 18.5t-18.5 7.5t-18.5 -7.5t-7.5 -18.5v-832
q0 -10 7.5 -17.5t18.5 -7.5t18.5 7.5t7.5 17.5v832v0z" />
    <glyph glyph-name="nav-list" unicode="&#xe63f;" 
d="M284 778h712q11 0 19.5 8.5t8.5 20t-8.5 20t-19.5 8.5h-712q-11 0 -19.5 -8.5t-8.5 -20t8.5 -20t19.5 -8.5zM125 835h-97q-11 0 -19.5 -8.5t-8.5 -20t8.5 -20t19.5 -8.5h97q12 0 20.5 8.5t8.5 20t-8.5 20t-20.5 8.5zM996 553h-712q-11 0 -19.5 -8t-8.5 -20t8.5 -20.5
t19.5 -8.5h712q11 0 19.5 8.5t8.5 20.5t-8.5 20t-19.5 8zM125 553h-97q-11 0 -19.5 -8t-8.5 -20t8.5 -20.5t19.5 -8.5h97q12 0 20.5 8.5t8.5 20.5t-8.5 20t-20.5 8zM586 -10h-302q-11 0 -19.5 -8.5t-8.5 -20t8.5 -20t19.5 -8.5h302q12 0 20 8.5t8 20t-8 20t-20 8.5zM125 -10
h-97q-11 0 -19.5 -8.5t-8.5 -20t8.5 -20t19.5 -8.5h97q12 0 20.5 8.5t8.5 20t-8.5 20t-20.5 8.5zM586 272h-302q-11 0 -19.5 -8.5t-8.5 -20.5t8.5 -20t19.5 -8h302q12 0 20 8t8 20t-8 20.5t-20 8.5zM125 272h-97q-11 0 -19.5 -8.5t-8.5 -20.5t8.5 -20t19.5 -8h97
q12 0 20.5 8t8.5 20t-8.5 20.5t-20.5 8.5zM996 166h-123v123q0 12 -8 20t-20 8t-20.5 -8t-8.5 -20v-123h-122q-12 0 -20 -8t-8 -20t8 -20t20 -8h122v-123q0 -12 8.5 -20t20.5 -8t20 8t8 20v123h123q11 0 19.5 8t8.5 20t-8.5 20t-19.5 8z" />
    <glyph glyph-name="image-text" unicode="&#xe640;" 
d="M608 603q11 0 18.5 7.5t7.5 18.5t-7.5 18.5t-18.5 7.5h-141q-10 0 -17.5 -8t-7.5 -18.5t7.5 -18t17.5 -7.5h141v0zM864 603q11 0 18.5 7.5t7.5 18.5t-7.5 18.5t-18.5 7.5h-141q-10 0 -17.5 -8t-7.5 -18.5t7.5 -18t17.5 -7.5h141v0zM608 447q11 0 18.5 7.5t7.5 18.5
t-7.5 18.5t-18.5 7.5h-141q-10 0 -17.5 -7.5t-7.5 -18.5t7.5 -18.5t17.5 -7.5h141v0zM864 447q11 0 18.5 7.5t7.5 18.5t-7.5 18.5t-18.5 7.5h-141q-10 0 -17.5 -7.5t-7.5 -18.5t7.5 -18.5t17.5 -7.5h141v0zM608 291q11 0 18.5 8t7.5 18.5t-7.5 18t-18.5 7.5h-141
q-10 0 -17.5 -7.5t-7.5 -18t7.5 -18.5t17.5 -8h141v0zM864 291q11 0 18.5 8t7.5 18.5t-7.5 18t-18.5 7.5h-141q-10 0 -17.5 -7.5t-7.5 -18t7.5 -18.5t17.5 -8h141v0zM864 291zM608 136q11 0 18.5 7.5t7.5 18t-7.5 18.5t-18.5 8h-141q-10 0 -17.5 -8t-7.5 -18.5t7.5 -18
t17.5 -7.5h141v0zM864 136q11 0 18.5 7.5t7.5 18t-7.5 18.5t-18.5 8h-141q-10 0 -17.5 -8t-7.5 -18.5t7.5 -18t17.5 -7.5h141v0zM864 136zM882 832h-854h-28v-29v-722q0 -60 41.5 -102.5t100.5 -42.5h854h28v29v260q0 12 -8.5 20.5t-20 8.5t-20 -8.5t-8.5 -20.5v-231h-825
q-35 0 -60 25.5t-25 61.5v693h825q35 0 60 -25.5t25 -61.5v-260q1 -11 9 -19t19.5 -8t20 8t8.5 19v260q0 60 -41.5 102.5t-100.5 42.5zM142 557.5q0 -41.5 29.5 -71.5t70.5 -30t70 30t29 71.5t-29 71.5t-70 30t-70.5 -30t-29.5 -71.5zM284 557q0 -18 -12.5 -30.5t-30 -12.5
t-30 12.5t-12.5 30.5t12.5 31t30 13t30 -13t12.5 -31z" />
    <glyph glyph-name="text" unicode="&#xe641;" 
d="M608 603q11 0 18.5 7.5t7.5 18.5t-7.5 18.5t-18.5 7.5h-141q-10 0 -17.5 -8t-7.5 -18.5t7.5 -18t17.5 -7.5h141v0zM864 603q11 0 18.5 7.5t7.5 18.5t-7.5 18.5t-18.5 7.5h-141q-10 0 -17.5 -8t-7.5 -18.5t7.5 -18t17.5 -7.5h141v0zM608 447q11 0 18.5 7.5t7.5 18.5
t-7.5 18.5t-18.5 7.5h-141q-10 0 -17.5 -7.5t-7.5 -18.5t7.5 -18.5t17.5 -7.5h141v0zM864 447q11 0 18.5 7.5t7.5 18.5t-7.5 18.5t-18.5 7.5h-141q-10 0 -17.5 -7.5t-7.5 -18.5t7.5 -18.5t17.5 -7.5h141v0zM608 291q11 0 18.5 8t7.5 18.5t-7.5 18t-18.5 7.5h-141
q-10 0 -17.5 -7.5t-7.5 -18t7.5 -18.5t17.5 -8h141v0zM864 291q11 0 18.5 8t7.5 18.5t-7.5 18t-18.5 7.5h-141q-10 0 -17.5 -7.5t-7.5 -18t7.5 -18.5t17.5 -8h141v0zM864 291zM608 136q11 0 18.5 7.5t7.5 18t-7.5 18.5t-18.5 8h-141q-10 0 -17.5 -8t-7.5 -18.5t7.5 -18
t17.5 -7.5h141v0zM864 136q11 0 18.5 7.5t7.5 18t-7.5 18.5t-18.5 8h-141q-10 0 -17.5 -8t-7.5 -18.5t7.5 -18t17.5 -7.5h141v0zM864 136zM352 603q11 0 18.5 7.5t7.5 18.5t-7.5 18.5t-18.5 7.5h-141q-10 0 -17.5 -8t-7.5 -18.5t7.5 -18t17.5 -7.5h141v0zM352 447
q11 0 18.5 7.5t7.5 18.5t-7.5 18.5t-18.5 7.5h-141q-10 0 -17.5 -7.5t-7.5 -18.5t7.5 -18.5t17.5 -7.5h141v0zM352 291q11 0 18.5 8t7.5 18.5t-7.5 18t-18.5 7.5h-141q-10 0 -17.5 -7.5t-7.5 -18t7.5 -18.5t17.5 -8h141v0zM608 291zM352 136q11 0 18.5 7.5t7.5 18t-7.5 18.5
t-18.5 8h-141q-10 0 -17.5 -8t-7.5 -18.5t7.5 -18t17.5 -7.5h141v0zM608 136zM882 832h-854h-28v-29v-722q0 -60 41.5 -102.5t100.5 -42.5h854h28v29v260q0 12 -8.5 20.5t-20 8.5t-20 -8.5t-8.5 -20.5v-231h-825q-35 0 -60 25.5t-25 61.5v693h825q35 0 60 -25.5t25 -61.5
v-260q1 -11 9 -19t19.5 -8t20 8t8.5 19v260q0 60 -41.5 102.5t-100.5 42.5z" />
    <glyph glyph-name="move" unicode="&#xe642;" 
d="M501 -126q11 -4 22 0q5 2 9 6v0l159 159q8 9 8 20.5t-8 20t-20 8.5t-20 -9l-111 -110v335q0 12 -8 20.5t-20 8.5t-20 -8.5t-8 -20.5v-335l-111 110q-8 9 -20 9t-20 -8.5t-8 -20t8 -20.5l159 -159l1 -0.5t2 -1.5q4 -3 6 -4zM523 894q-11 4 -22 0q-5 -2 -9 -6v0l-159 -159
q-8 -9 -8 -20.5t8 -20t20 -8.5t20 9l111 110v-335q0 -12 8 -20.5t20 -8.5t20 8.5t8 20.5v335l111 -110q8 -9 20 -9t20 8.5t8 20.5t-8 20l-159 159l-1 0.5t-2 1.5q-4 3 -6 4zM1022 373q4 11 0 22q-2 5 -6 9v0l-159 159q-9 8 -20.5 8t-20 -8t-8.5 -20t9 -20l110 -111h-335
q-12 0 -20.5 -8t-8.5 -20t8.5 -20t20.5 -8h335l-110 -111q-9 -8 -9 -20t8.5 -20t20.5 -8t20 8l159 159l0.5 1t1.5 2q3 4 4 6zM2 395q-4 -11 0 -22q2 -5 6 -9v0l159 -159q9 -8 20.5 -8t20 8t8.5 20t-9 20l-110 111h335q12 0 20.5 8t8.5 20t-8.5 20t-20.5 8h-335l110 111
q9 8 9 20t-8.5 20t-20.5 8t-20 -8l-159 -159l-0.5 -1t-1.5 -2q-3 -4 -4 -6z" />
    <glyph glyph-name="subtract" unicode="&#xe650;" 
d="M853 363q9 0 15.5 6t6.5 15t-6.5 15t-15.5 6h-682q-9 0 -15.5 -6t-6.5 -15t6.5 -15t15.5 -6h682z" />
    <glyph glyph-name="dollar" unicode="&#xe643;" 
d="M819 308q-25 46 -67 74q-45 30 -97 44q-56 14 -131 17v327q40 -1 77 -11q44 -11 76 -36q31 -25 49 -63t18 -94q0 -11 7.5 -18.5t18 -7.5t18 7.5t7.5 18.5q0 67 -23 116t-63 81q-40 31 -95 46q-43 11 -90 13v48q0 10 -7.5 17.5t-18 7.5t-18 -7.5t-7.5 -17.5v-48
q-38 -2 -70 -10q-47 -11 -84.5 -33.5t-58.5 -51t-32.5 -57.5t-12.5 -58q-1 -18 0.5 -36t10.5 -44.5t25.5 -48.5t48.5 -42.5t75 -31.5q48 -12 98 -16v-375q-43 4 -80 15q-53 16 -91 49q-39 32 -61 79t-23 111q-1 10 -8.5 17.5t-18.5 6.5q-10 0 -17.5 -7.5t-7.5 -18.5
q2 -73 29 -131q27 -57 74 -96q46 -39 109 -59q46 -14 95 -17v-69q0 -11 7.5 -18t18.5 -7t18 7t7 18v68q46 1 97 10q58 11 107 38q49 28 81 74q34 48 34 120q0 54 -24 100zM473 445q-44 3 -85 14q-38 9 -64 26.5t-38.5 39t-17 42t-2.5 42.5q0 10 2 21t11.5 32t24 38.5t44 35
t67.5 26.5q26 7 58 8v-325zM767 117q-25 -36 -65 -59q-41 -23 -90 -32q-45 -8 -88 -9v374q67 -2 118 -15q43 -10 81 -36q32 -21 51 -56q18 -34 18 -76q0 -56 -25 -91z" />
    <glyph glyph-name="office" unicode="&#xe644;" 
d="M335 712q91 2 135 -43q13 -12 20 -28q4 -6 4 -10v6v-440q0 6 10 10q9 4 13 1l-16 -20l20 16q-13 18 -45 33q-58 29 -148 29t-141 -28q-30 -17 -40 -37l23 -11l-19 17q5 6 17 1q11 -4 11 -11v300v140l-3 -13q3 5 9 13q13 17 29 31q53 46 121 44v0zM335 764q-86 1 -154 -57
q-33 -28 -50 -58l-3 -5v-7v-140v-300q0 -28 21.5 -36.5t39.5 12.5l3 3l1 3q3 5 19 14q39 22 116 22q78 0 125 -24q21 -10 27 -18l2 -2l2 -2q21 -17 41 -8t20 36v440l-1 5q-7 33 -38 64q-59 59 -171 58v0zM0 506v-478q0 -28 20.5 -36.5t40.5 9.5l2 2q4 5 13 13q19 16 43 30
q77 45 173 45q94 0 156 -51q19 -16 33 -35q6 -9 9 -14q5 -10 15 -13t19.5 1.5t13 14.5t-1.5 19q-16 34 -55 66q-76 63 -189 63q-110 0 -199 -52q-45 -26 -68 -53l19 -17l-17 19q4 4 14 0q10 -5 10 -11v478q0 11 -7.5 18.5t-18 7.5t-18 -7.5t-7.5 -18.5v0zM697 764
q-113 1 -172 -58q-31 -31 -38 -64l-1 -5v-440q0 -27 20.5 -36t40.5 8l2 2l2 2q6 8 27 18q47 24 125 24q77 0 117 -22q15 -9 18 -14l2 -3l2 -3q19 -21 40 -12.5t21 36.5v300v140v7l-3 5q-17 30 -50 58q-67 58 -154 57h1zM697 712q67 2 120 -44q16 -14 29 -31q7 -8 10 -13
l-4 13v-140v-300q0 7 11 11q12 5 17 -1l-19 -17l23 11q-10 20 -40 37q-51 28 -141 28t-148 -29q-32 -15 -45 -33l21 -16l-17 20q4 3 14 -1t10 -10v440l-1 -6q1 4 4 10q7 16 20 28q44 45 135 43h1zM973 506v-478q0 6 10 11q10 4 14 0l-17 -19l19 17q-23 27 -68 53
q-89 52 -199 52q-113 0 -189 -66q-38 -34 -54 -69q-5 -10 -1 -19.5t13.5 -14t19.5 -1t14 13.5l9 15q14 20 33 36q61 54 155 54q96 0 173 -45q24 -14 43 -30q9 -8 13 -13l2 -2q20 -18 40.5 -9.5t20.5 36.5v478q0 11 -7.5 18.5t-18 7.5t-18 -7.5t-7.5 -18.5v0z" />
    <glyph glyph-name="operation" unicode="&#xe645;" 
d="M549 424q-5 4 -12 7l-140 87l89 -139q2 -6 7 -11l1 -2h1q11 -11 27.5 -11t28 11.5t11.5 28t-12 27.5l1 1zM521 699v0h-13l1 -152v0q1 -10 8.5 -17t17.5 -7q11 0 18.5 7.5t7.5 18.5v1l1 96q97 -14 157 -83t61 -169q0 -110 -73.5 -183t-184.5 -73q-110 -1 -182 72.5
t-73 183.5q0 114 77 190v0l2 2q5 6 4 14t-8 14q-5 5 -15.5 4.5t-15.5 -4.5v0v0l-2 -2v0q-44 -43 -68 -99.5t-23 -119.5q0 -126 90 -215t216 -88.5t215 90t88.5 216t-90.5 215.5t-216 88zM512 885q-102 0 -194.5 -39.5t-160 -107t-107 -160t-39.5 -194.5t39.5 -194.5
t107 -160t160 -107t194.5 -39.5q175 0 312 109q8 6 9 16t-5.5 18t-16.5 9.5t-18 -5.5q-123 -98 -281 -98q-92 0 -175.5 36t-144 96.5t-96.5 144t-36 175.5t36 175.5t96.5 144t144 96.5t175.5 36t175.5 -36t144 -96.5t96.5 -144t36 -175.5q0 -129 -68 -239q-5 -8 -3 -18
t10.5 -15.5t18.5 -3t15 10.5q76 121 76 265q0 102 -39.5 194.5t-107 160t-160 107t-194.5 39.5z" />
    <glyph glyph-name="download" unicode="&#xe646;" 
d="M996 -128h-968q-11 0 -19.5 8.5t-8.5 19.5v0q0 12 8.5 20t19.5 8h968q11 0 19.5 -8t8.5 -20v0q0 -11 -8.5 -19.5t-19.5 -8.5zM927 520v0q-8 7 -21 7t-20 -7l-348 -346v694q0 12 -7.5 20t-18.5 8t-18.5 -8t-7.5 -20v-694l-348 346q-7 7 -20 7t-20.5 -7.5t-7.5 -19.5t7 -21
l395 -395q2 -2 5 -2l2 -3q12 -3 23 0l3 3l5 2l394 395q10 9 10.5 21t-7.5 20z" />
    <glyph glyph-name="map" unicode="&#xe647;" 
d="M452 -98q20 -23 49.5 -23t49.5 23q5 5 15 16q19 21 39 45q64 76 117 150q58 81 97 152q77 137 77 229q0 109 -53 201.5t-143.5 146.5t-198 54t-198.5 -54t-143.5 -146.5t-52.5 -201.5q0 -92 77 -230q39 -70 97 -151q53 -74 117 -150q20 -24 39 -45q10 -11 15 -17v1z
M487 -65q-5 5 -14 16q-19 20 -38 43q-63 75 -116 148q-56 78 -94 146q-70 127 -70 206q0 96 46 177.5t126 128.5t174.5 47t174 -47t126 -128.5t46.5 -177.5q0 -79 -70 -205q-38 -68 -94 -147q-53 -73 -116 -147q-19 -24 -38 -44q-9 -10 -14 -16q-6 -7 -14.5 -7.5t-14.5 6.5
v1zM715 429q14 37 14 77q0 91 -63.5 155t-152.5 64t-152 -64t-63 -155t63 -155.5t152 -64.5q54 0 101 26q9 5 12 14.5t-1.5 18.5t-14 12t-18.5 -2q-37 -20 -79 -20q-69 0 -118 50t-49 121t49 121t118.5 50t118.5 -50t49 -121q0 -31 -11 -60q-3 -9 1 -18.5t13 -13t18 1
t13 13.5v0z" />
    <glyph glyph-name="bad" unicode="&#xe648;" 
d="M743 865q54 0 94.5 -24t63.5 -70q3 -5 5 -16q5 -28 30 -57q17 -21 23.5 -46t6 -40.5t-4.5 -41.5q-3 -20 -3 -29q-1 -22 2.5 -33.5t16.5 -33.5q9 -14 11 -17q17 -30 16.5 -65.5t-19.5 -68.5q-21 -37 -59.5 -57.5t-83.5 -20.5q-64 0 -142 2q26 -148 26 -211
q0 -64 -37.5 -94.5t-87.5 -30.5q-47 0 -80 38.5t-33 94.5q0 45 -3.5 59.5t-19.5 37.5q-46 63 -88 103t-63 40h-196q-37 0 -63 25.5t-26 61.5v406q0 36 26 62t63 26h134q9 0 16 -7t7 -16v-512h39q72 0 189 -162q22 -31 27 -52.5t5 -71.5q0 -36 19.5 -61.5t46.5 -25.5
q12 0 23 2.5t24.5 9.5t22 24.5t8.5 42.5q0 31 -8 90.5t-14 94.5t-8 45q-2 11 5.5 19.5t18.5 8.5l5.5 -0.5t15 -0.5t22 -0.5t27.5 -0.5t31 -0.5t34 -0.5h34q33 0 60 14.5t43 40.5q27 46 2 88q-4 8 -10 17q-10 17 -15 26.5t-8.5 27t-2.5 39.5q1 10 4 32q5 24 3 48.5t-18 43.5
q-32 39 -40 78q-1 4 -1 6q-34 67 -116 67h-316q-10 0 -17 6.5t-7 16t7 16.5t17 7h316v0zM118 330h110v489h-110q-18 0 -30 -12.5t-12 -29.5v-406q0 -17 12 -29t30 -12v0zM118 330z" />
    <glyph glyph-name="good" unicode="&#xe649;" 
d="M743 -90h-316q-10 0 -17 7t-7 16.5t7 16.5t17 7h316q82 0 115 67q1 1 2 5q8 39 40 78q16 19 18 44t-3 48q-3 22 -4 33q-1 22 2.5 39.5t8.5 26.5l15 27q6 9 10 16q24 42 -2 88q-16 26 -43 41t-60 15q-16 0 -34 -0.5t-34 -0.5t-31 -0.5t-27.5 -0.5t-22 -0.5t-15 -0.5h-5.5
q-11 0 -18.5 8t-5.5 19t8 45.5t14 94t8 90.5q0 26 -8.5 43t-22 24.5t-24.5 10t-23 2.5q-27 0 -46.5 -25.5t-19.5 -62.5q0 -50 -5 -71.5t-27 -52.5q-117 -161 -189 -161h-39v-512q0 -10 -7 -17t-16 -7h-134q-37 0 -63 26t-26 62v406q0 36 26 62t63 26h196q21 0 63 39.5
t88 102.5q16 23 19.5 37.5t3.5 59.5q0 57 33 95.5t80 38.5q50 0 87.5 -31t37.5 -95q0 -63 -26 -210q81 2 142 2q45 0 83 -21t60 -58q19 -32 19.5 -67.5t-16.5 -66.5q-4 -6 -11 -17q-13 -21 -16.5 -32.5t-2.5 -34.5q0 -8 3 -29q4 -26 4.5 -41t-6 -40.5t-23.5 -45.5
q-25 -30 -30 -58q-2 -10 -5 -16q-23 -45 -63.5 -69.5t-94.5 -24.5v0zM118 446q-18 0 -30 -12.5t-12 -29.5v-406q0 -17 12 -29t30 -12h110v489h-110v0zM118 446z" />
    <glyph glyph-name="skip" unicode="&#xe64b;" 
d="M1011 409q0 15 -11 26l-394 340q-11 9 -24 9q-14 0 -24.5 -10.5t-10.5 -25.5v-150q-226 -37 -372.5 -189t-161.5 -366q1 -9 7.5 -15t15.5 -6q7 0 13 4v0q73 51 132 83q100 55 258 84v0q12 0 19.5 8t7.5 19.5t-7.5 19.5t-19.5 8q-5 0 -9 -2q-216 -42 -362 -147
q100 371 512 448v0q11 2 18 10.5t7 19.5v1v0v115l332 -284l-329 -281h-2v138v0q-1 12 -9.5 20.5t-20.5 8.5t-20.5 -9t-8.5 -21v0v0v-57v-75v-64q0 -15 10.5 -25.5t24.5 -10.5q12 0 23 8l394 341v0q12 10 12 27z" />
    <glyph glyph-name="play" unicode="&#xe64c;" 
d="M512 896q-138 0 -256 -69t-187 -187t-69 -256t69 -256t187 -187t256 -69q178 0 320 110q8 6 9.5 16t-4.5 20q-6 8 -16 9.5t-20 -4.5q-123 -100 -289 -100q-94 0 -179.5 36.5t-147 98t-98 147t-36.5 179.5t36.5 179.5t98 147t147 98t179.5 36.5t179.5 -36.5t147 -98
t98 -147t36.5 -179.5q0 -129 -69 -243q-6 -10 -3.5 -19.5t10.5 -13.5q10 -6 20 -3.5t14 10.5q76 119 76 272q1 102 -39 196.5t-108.5 163t-163 109t-198.5 40.5zM714 438q-8 7 -69.5 62.5t-119 107.5l-57.5 52q-7 8 -17 7t-18 -9t-8 -18v0v-512q0 -12 7 -19t18.5 -7t15.5 8
q1 1 56 48.5t115 99t70 59.5q33 30 33 64q3 32 -26 57zM681 361q-3 -2 -54.5 -46.5t-101 -87t-49.5 -43.5v400q187 -167 202 -182q14 -14 15 -21.5t-12 -19.5z" />
    <glyph glyph-name="stop" unicode="&#xe64d;" 
d="M512 896q-138 0 -256 -69t-187 -187t-69 -256t69 -256t187 -187t256 -69q178 0 320 110q8 6 9.5 16t-4.5 20q-6 8 -16 9.5t-20 -4.5q-123 -100 -289 -100q-94 0 -179.5 36.5t-147 98t-98 147t-36.5 179.5t36.5 179.5t98 147t147 98t179.5 36.5t179.5 -36.5t147 -98
t98 -147t36.5 -179.5q0 -129 -69 -243q-6 -10 -3.5 -19.5t10.5 -13.5q10 -6 20 -3.5t14 10.5q76 119 76 272q1 102 -39 196.5t-108.5 163t-163 109t-198.5 40.5zM686 589h-348q-14 0 -22.5 -8.5t-8.5 -22.5v-348q0 -14 8.5 -22.5t22.5 -8.5h348q14 0 22.5 8.5t8.5 22.5v348
q0 14 -8.5 22.5t-22.5 8.5zM666 238q0 -8 -8 -8h-292q-8 0 -8 8v292q0 8 8 8h292q8 0 8 -8v-292z" />
    <glyph glyph-name="compass" unicode="&#xe64e;" 
d="M512 -128q-138 0 -256 69t-187 187t-69 256t69 256t187 187t256 69t256 -69t187 -187t69 -256t-69 -256t-187 -187t-256 -69zM512 853q-95 0 -182 -37t-150 -100t-100 -150t-37 -182t37 -182t100 -150t150 -100t182 -37t182 37t150 100t100 150t37 182t-37 182t-100 150
t-150 100t-182 37zM267 117q-9 0 -15 7q-11 10 -5 23l139 352q3 10 13 13l352 139q15 4 23 -5q11 -10 5 -23l-139 -352q-3 -8 -11.5 -12t-16.5 -1t-12 11.5t-1 16.5l122 307l-296 -117l-118 -297l218 86q8 3 16 -1t12 -12q3 -9 -0.5 -17t-12.5 -11l-263 -105q-6 -2 -10 -2z
M512 384zM476 384q0 15 10.5 25.5t25.5 10.5t25.5 -10.5t10.5 -25.5t-10.5 -25.5t-25.5 -10.5t-25.5 10.5t-10.5 25.5z" />
    <glyph glyph-name="security" unicode="&#xe64f;" 
d="M516 -128h-8q-94 0 -179 36t-146 97.5t-97.5 146.5t-36.5 179v446q0 9 6 15t15 6h107q131 0 254 60l72 36q10 3 20 0l72 -36q123 -60 254 -60h107q9 0 15 -6t6 -15.5t-6 -15.5t-15 -6h-107q-145 0 -273 64l-64 32l-62 -32q-128 -64 -273 -64h-85v-424q0 -114 55.5 -209.5
t151 -151t209.5 -55.5h8q113 0 208.5 55.5t151.5 151t56 209.5v298l-405 -390q-6 -6 -15 -6t-15 6l-200 200q-7 7 -7 15.5t6.5 15t15 6.5t14.5 -7l186 -185l427 409q10 11 23 4.5t13 -19.5v-347q0 -94 -36.5 -179t-97.5 -146.5t-146 -97.5t-179 -36z" />
    <glyph glyph-name="share" unicode="&#xe651;" 
d="M697 473h151q28 0 47.5 -19.5t19.5 -47.5v-423v-89l23 23h-90h-629q-28 0 -47.5 19.5t-19.5 46.5v423v40v14v35l-23 -22h36h14h40h135q10 0 16.5 6.5t6.5 16t-6.5 16t-16.5 6.5h-135h-40h-14h-36q-9 0 -15.5 -6.5t-6.5 -16.5v-35v-14v-40v-423q0 -46 32.5 -78.5
t79.5 -32.5h629h90q9 0 15.5 6.5t6.5 15.5v89v423q0 46 -33 79t-79 33h-151q-9 0 -15.5 -6.5t-6.5 -16t6.5 -16t15.5 -6.5v0zM348 613l201 224h-34l201 -220q6 -7 15.5 -7.5t16 5.5t7 15.5t-5.5 16.5l-200 219l-17 19l-17 -19l-201 -223q-6 -7 -5.5 -16t7.5 -15.5t16.5 -6
t15.5 7.5v0zM511 818v-704q0 -9 6.5 -16t15.5 -7t16 7t7 16v704q0 9 -6.5 15.5t-16 6.5t-16 -6.5t-6.5 -15.5v0z" />
    <glyph glyph-name="store" unicode="&#xe652;" 
d="M958 725q-2 45 -34 76t-77 31h-2h-2h-760q-8 0 -15 -6q-6 -13 -6 -15v-762v0q1 -47 34 -80t79 -33h2h2h363q30 0 30 21v384h173v-382q0 -8 8 -17q6 -6 15 -6h169q8 0 14.5 6t6.5 15v0v2v764v2zM915 721v0v-134q0 -33 -25 -54t-60 -21q-34 0 -58.5 20.5t-24.5 52.5v2v0
v202h-43v-202v0v-2q-2 -33 -27.5 -53t-59.5 -20q-35 0 -59.5 20.5t-24.5 52.5v2v0v202h-42v-202v0v-2q-2 -33 -27.5 -53t-60.5 -20q-34 0 -57.5 20t-25.5 53v204h-43v-204q-1 -33 -26.5 -53t-60.5 -20q-36 0 -59.5 21t-23.5 54v202h736h2h4q26 0 46 -20.5t20 -47.5zM105 49
v450q36 -30 85 -30q69 0 107 52q37 -52 106 -52t107 52q37 -52 106.5 -52t106.5 52q38 -52 107 -52q51 0 87 30v-520h-128v384q0 9 -5.5 15t-15.5 6h-213q-10 0 -16 -6t-6 -15v0v0v-384h-354h-2h-2q-28 0 -49 21t-21 49z" />
    <glyph glyph-name="phone" unicode="&#xe653;" 
d="M942 158q-40 37 -77 61q-52 37 -85 51q-51 26 -70 26q-28 0 -52 -30q-13 -20 -23 -45t-18 -34q-21 6 -70 38q-57 41 -105 85q-36 37 -85 105q-33 49 -38 70q4 2 34 18q33 13 45 23q30 22 30 52q0 23 -26 70q-12 26 -51 85q-26 37 -61 77q-41 41 -67 41q-47 0 -114 -87
q-14 -18 -27 -39t-26.5 -56.5t-13.5 -64.5q0 -70 75 -194q71 -116 177 -225l21 -21v0q114 -111 225 -177q29 -20 78 -43v0q5 -2 11 -2q11 0 19 8t8 19q0 20 -17 26q-28 13 -71 39q-108 66 -213 169l-21 21q-103 106 -169 213q-67 106 -67 164q0 53 54 124q30 38 45 51
q20 18 27 18q11 -5 34.5 -29.5t52.5 -69.5q32 -46 45 -74q18 -32 18 -43q-4 -5 -10 -9q-4 -2 -15.5 -7t-16.5 -8q-19 -8 -41 -19q-28 -18 -28 -46q0 -33 49 -104q46 -68 92 -113v0q50 -49 113 -92q74 -49 105 -49v0q26 0 45 28q3 4 6 10.5t7 16t6 14.5q8 20 15 31q7 5 11 7
v0q11 0 43 -18q53 -30 74 -45q44 -31 69.5 -54.5t29.5 -32.5q-6 -12 -18 -28q-17 -22 -51 -45q-47 -34 -87 -47v0q-17 -7 -17 -25q0 -12 8 -20t19 -8q4 0 6 2v0q3 0 5 2v0q50 17 102 55q27 20 57 53.5t30 62.5q0 28 -40 68z" />
    <glyph glyph-name="ellipsis" unicode="&#xe654;" 
d="M106.5 277q44.5 0 75.5 31.5t31 75.5t-31 75.5t-75.5 31.5t-75.5 -31.5t-31 -75.5t31 -75.5t75.5 -31.5zM512 277q44 0 75.5 31.5t31.5 75.5t-31.5 75.5t-75.5 31.5t-75.5 -31.5t-31.5 -75.5t31.5 -75.5t75.5 -31.5zM917 277q44 0 75.5 31.5t31.5 75.5t-31.5 75.5
t-75.5 31.5t-75 -31.5t-31 -75.5t31 -75.5t75 -31.5v0z" />
    <glyph glyph-name="email-filling" unicode="&#xe665;" 
d="M1024 653v51q0 44 -31.5 75.5t-75.5 31.5h-912v-751q0 -44 31.5 -75.5t75.5 -31.5h912v496v149l-480 -264q-15 -8 -29 1l-364 260q-9 6 -11 17t4.5 20t17.5 11t20 -5l350 -250l10 6q152 83 482 259z" />
    <glyph glyph-name="favorites-filling" unicode="&#xe666;" 
d="M340 555l129 282q17 38 40.5 37.5t39.5 -38.5l130 -281h-339zM679 556l285 -31q41 -5 48 -27t-24 -49l-216 -220zM772 232l58 -281q9 -41 -10 -54.5t-54 8.5l-248 144zM517 50l-249 -144q-36 -20 -55 -6t-9 54l65 282zM270 235l-241 214q-31 27 -24 49t48 27l286 28
l-3 -10l3 12h341l91 -323l-253 -183l-248 186v0z" />
    <glyph glyph-name="account-filling" unicode="&#xe667;" 
d="M622 308q66 37 106 105.5t40 151.5q0 120 -78 204t-188.5 84t-188.5 -84t-78 -204q0 -83 40 -152t107 -105q-74 -19 -135.5 -54t-102.5 -77.5t-69 -92t-41 -97.5t-13 -94h465h517q0 141 -109 260.5t-272 154.5z" />
    <glyph glyph-name="credit-level" unicode="&#xe65a;" 
d="M998 527l-200 275q-7 11 -19 11h-536q-15 -2 -23 -17q-12 -19 -58.5 -90t-88 -132.5l-41.5 -61.5l-11 -17l13 -15l435 -508q7 -6 11 -8q7 -5 20.5 -6t26.5 6q2 1 5 4t6 4l409 421q8 6 8 16.5t-8 17.5q-6 8 -15.5 8t-16.5 -8l-354 -365l154 422v0h251q20 0 24 5l2 2
q10 4 11.5 14.5t-5.5 21.5zM783 764l-96 -226h-346l-85 226h527zM222 715l72 -180h-192zM92 489h215l139 -416zM503 45l-147 444h307zM736 535l75 167l119 -169h-194v2z" />
    <glyph glyph-name="credit-level-filling" unicode="&#xe65c;" 
d="M1003 512l-190 265l-90 -265h280zM363 469l149 -433l147 433h-296zM678 512l94 299h-94h-315h-111l96 -299h330zM535 -38l3 -3l463 510h-293zM209 779l-188 -267h280zM21 469l465 -514v9l-170 505h-295z" />
    <glyph glyph-name="mobile-phone" unicode="&#xe65d;" 
d="M850 -78h-553q-32 0 -54 22t-22 53v874l-25 -25h553q31 0 53 -22t22 -53v-752q0 -10 7.5 -17.5t18 -7.5t18 7.5t7.5 17.5v752q0 52 -37 88.5t-89 36.5h-553h-25v-25v-874q0 -52 36.5 -88.5t89.5 -36.5h553q10 0 17.5 7.5t7.5 17.5t-7.5 17.5t-17.5 7.5v0zM325 718
q0 10 7.5 16.5t16.5 6.5h338q10 0 17 -6.5t7 -16.5v-575q0 -9 -7 -16t-17 -7h-338q-9 0 -16.5 7t-7.5 16v575v0zM277 718v-575q0 -29 21.5 -50t50.5 -21h338q30 0 51 21t21 50v575q0 29 -21 50t-51 21h-338q-29 0 -50.5 -21t-21.5 -50v0zM523 -53q20 0 35 14.5t15 35.5
t-15 35.5t-35.5 14.5t-35.5 -14.5t-15 -35.5t15 -35.5t36 -14.5v0zM523 -3v0v0v0v0v0z" />
    <glyph glyph-name="smile" unicode="&#xe668;" 
d="M1024 384q0 139 -68.5 257t-186.5 186.5t-257 68.5t-257 -68.5t-186.5 -186.5t-68.5 -257t68.5 -257t186.5 -186.5t257 -68.5q179 0 319 111q8 7 9 17t-5.5 18.5t-16.5 9.5t-18 -6q-126 -100 -288 -100q-94 0 -179.5 36.5t-147.5 98.5t-98.5 147.5t-36.5 179.5
t36.5 179.5t98.5 147.5t147.5 98.5t179.5 36.5t179.5 -36.5t147.5 -98.5t98.5 -147.5t36.5 -179.5q0 -132 -70 -244q-5 -9 -2.5 -19t11 -15.5t18.5 -3t16 11.5q77 123 77 270zM337 396q26 0 44.5 18.5t18.5 44.5t-18.5 44t-44.5 18t-44 -18t-18 -44t18 -44.5t44 -18.5z
M712 396q26 0 44 18.5t18 44.5t-18 44t-44 18t-44.5 -18t-18.5 -44t18.5 -44.5t44.5 -18.5zM353 127q69 -55 171.5 -55t171.5 55q36 29 51 59q4 9 1 18.5t-12.5 14.5t-19 1.5t-14.5 -12.5q-2 -4 -8 -12q-12 -16 -29 -30q-56 -44 -140.5 -44t-140.5 44q-17 14 -29 30
q-6 8 -8 12q-5 9 -14.5 12.5t-19 -1.5t-12.5 -14.5t1 -18.5q15 -30 51 -59z" />
    <glyph glyph-name="personal-center" unicode="&#xe669;" horiz-adv-x="1025" 
d="M690 545.5q0 74.5 -52 126.5t-126 52t-126.5 -52t-52.5 -126.5t52.5 -127t126.5 -52.5t126 52.5t52 127zM376 545.5q0 56.5 40 96.5t96 40t95.5 -40t39.5 -96.5t-39.5 -96.5t-95.5 -40t-96 40t-40 96.5zM197 133v-15h16l291 -1l316 1h15v15q0 52 -24 103.5t-65 90.5
t-99.5 61.5t-122.5 17.5q-5 0 -17 -4.5t-17 -5.5q-4 0 4 -6q10 -6 10 -10q5 0 8 -7t8 -7q111 0 187 -66t76 -158l15 15h-286l-279 -1l16 -16q0 56 40.5 106.5t96.5 85.5q5 3 6.5 11t-1.5 12q-9 12 -28 6q-61 -20 -113.5 -89.5t-52.5 -138.5zM512 894q-104 0 -198.5 -40.5
t-163.5 -108.5t-109.5 -163t-40.5 -199t40.5 -198.5t109.5 -163t163.5 -109t198.5 -40.5q179 0 319 111q8 7 9.5 17t-5 18t-17 9.5t-18.5 -5.5q-126 -100 -288 -100q-94 0 -179.5 36.5t-147.5 98.5t-98.5 147t-36.5 179t36.5 179.5t98.5 147.5t147.5 98.5t179.5 36.5
t180 -36.5t147.5 -98.5t98 -147.5t36.5 -179.5q0 -132 -69 -243q-6 -9 -3.5 -19t11.5 -15.5t19 -3t15 10.5q77 124 77 270q0 104 -40.5 199t-109 163t-163.5 108.5t-199 40.5z" />
    <glyph glyph-name="arrow-up-filling" unicode="&#xe601;" horiz-adv-x="1038" 
d="M2 128l510 512l510 -512h-1020z" />
    <glyph glyph-name="arrow-right" unicode="&#xe603;" 
d="M284 -124l-50 50l456 456l-447 447l50 50l497 -497z" />
    <glyph glyph-name="arrow-down" unicode="&#xe66b;" horiz-adv-x="1036" 
d="M1020 615l-50 51l-463 -463l-453 453l-50 -50l503 -504z" />
    <glyph glyph-name="arrow-up" unicode="&#xe66c;" horiz-adv-x="1036" 
d="M1020 153l-50 -51l-463 463l-453 -453l-50 50l503 504z" />
    <glyph glyph-name="add" unicode="&#xe66f;" 
d="M1001 420h-453v453h-72v-453h-453v-72h453v-453h72v453h453v72z" />
    <glyph glyph-name="minus" unicode="&#xe670;" 
d="M23 420h978v-72h-978v72zM512 873zM512 -105z" />
    <glyph glyph-name="edit" unicode="&#xe613;" 
d="M897 644l-89 65l44 58l88 -67zM580 224l-101 -36l3 102l295 380l90 -65zM989 725l-126 96l-20 14l-14 -19l-391 -501l-5 -7v-8l-4 -147l-1 -36l34 12l141 51l7 3l4 5l380 502l15 20zM945 435v-500h-804q-51 0 -87 36t-36 88v612h579q10 0 17 -7.5t7 -18t-7 -17.5t-17 -7
h-530v-562q0 -31 21.5 -53t52.5 -22h754v451q0 10 7.5 17.5t17.5 7.5t17.5 -7.5t7.5 -17.5z" />
    <glyph glyph-name="error" unicode="&#xe672;" 
d="M1008 384q0 101 -39.5 193t-105.5 158t-158 105.5t-193 39.5t-193 -39.5t-158 -105.5t-105.5 -158t-39.5 -193t39.5 -193t105.5 -158t158 -105.5t193 -39.5q173 0 309 108q8 6 9 16t-5.5 18t-16.5 9t-17 -5q-122 -98 -279 -98q-91 0 -174 35.5t-143 95.5t-95.5 143
t-35.5 174t35.5 174t95.5 143t143 95.5t174 35.5t174 -35.5t143 -95.5t95.5 -143t35.5 -174q0 -128 -68 -236q-5 -9 -3 -18.5t10.5 -15t18.5 -3t15 10.5q75 120 75 262zM524 358l-152 -155q-7 -7 -17 -7t-17 7t-7.5 17t6.5 17l153 156l-153 156q-7 7 -6.5 17t7.5 17t17 7
t17 -8l152 -155l153 155q7 8 17 8t17 -7t7 -17t-7 -17l-153 -156l153 -156q7 -7 7 -17t-7 -17t-17 -7t-17 7z" />
    <glyph glyph-name="select" unicode="&#xe673;" 
d="M133 422l200 -191l558 537l120 -115l-678 -653l-320 307z" />
    <glyph glyph-name="ashbin" unicode="&#xe61e;" 
d="M694 568q-11 0 -18.5 -8t-7.5 -19v-480q0 -11 7.5 -19t18.5 -8t19 8t8 19v480q0 11 -8 19t-19 8zM376 568q-11 0 -19 -8t-8 -19v-480q0 -11 8 -19t19 -8t18.5 8t7.5 19v480q0 11 -7.5 19t-18.5 8zM535 568q-11 0 -19 -8t-8 -19v-480q0 -11 8 -19t19 -8t18.5 8t7.5 19v480
q0 11 -7.5 19t-18.5 8zM873 625v-736h-687v742q0 11 8 19t19 8t18.5 -8t7.5 -19v-684h581v678q0 11 7.5 18.5t18.5 7.5t19 -7.5t8 -18.5zM400 799q0 11 8 19t19 8h207q11 0 18.5 -8t7.5 -19v-40l-260 1v39zM987 759h-274v40q0 33 -23 56.5t-56 23.5h-207q-33 0 -56.5 -23.5
t-23.5 -56.5v-39h-310q-11 0 -19 -7.5t-8 -18.5t8 -19t19 -8l950 -1q11 0 19 7.5t8 18.5t-8 19t-19 8z" />
    <glyph glyph-name="calendar" unicode="&#xe620;" 
d="M848 226h-132q-10 0 -17 -7t-7 -17.5t7 -17.5t17 -7h132q10 0 17 7t7 17.5t-7 17.5t-17 7zM608 226h-132q-10 0 -17 -7t-7 -17.5t7 -17.5t17 -7h132q10 0 17 7t7 17.5t-7 17.5t-17 7zM344 226h-132q-10 0 -17 -7t-7 -17.5t7 -17.5t17 -7h132q10 0 17 7t7 17.5t-7 17.5
t-17 7zM848 372h-132q-10 0 -17 -7t-7 -17.5t7 -17.5t17 -7h132q10 0 17 7t7 17.5t-7 17.5t-17 7zM608 372h-132q-10 0 -17 -7t-7 -17.5t7 -17.5t17 -7h132q10 0 17 7t7 17.5t-7 17.5t-17 7zM344 372h-132q-10 0 -17 -7t-7 -17.5t7 -17.5t17 -7h132q10 0 17 7t7 17.5
t-7 17.5t-17 7zM848 518h-132q-10 0 -17 -7t-7 -17.5t7 -17.5t17 -7h132q10 0 17 7t7 17.5t-7 17.5t-17 7zM608 518h-132q-10 0 -17 -7t-7 -17.5t7 -17.5t17 -7h132q10 0 17 7t7 17.5t-7 17.5t-17 7zM344 518h-132q-10 0 -17 -7t-7 -17.5t7 -17.5t17 -7h132q10 0 17 7
t7 17.5t-7 17.5t-17 7zM992 615v-547q0 -11 -7 -18t-17 -7t-17 7t-7 18v547q0 30 -21 51.5t-51 21.5h-120v-61q0 -10 -7 -17t-17 -7t-17 7t-7 17v61h-360v-73q0 -10 -7 -17t-17 -7t-17 7t-7 17v73h-216v-632q0 -31 21 -52.5t51 -21.5h708q10 0 17 -7t7 -17t-7 -17t-17 -7
h-708q-50 0 -85 35.5t-35 86.5v657q0 10 7 17t17 7h240v61q0 10 7 17t17 7t17 -7t7 -17v-61h360v73q0 10 7 17t17 7t17 -7t7 -17v-73h120q50 0 85 -35.5t35 -86.5z" />
    <glyph glyph-name="time" unicode="&#xe622;" 
d="M999 384q0 -151 -85 -275q-8 -11 -21 -11q-4 0 -7.5 1.5t-6.5 3.5q-8 5 -10 15.5t4 18.5q76 112 76 247q0 89 -34 170q-33 79 -94 139.5t-139 93.5q-81 34 -170 34t-170 -34q-78 -33 -139 -94t-94 -139q-34 -81 -34 -170t34 -170q33 -78 94 -139t139 -94q81 -34 170 -34
q147 0 264 89q7 5 15 5q12 0 20 -10q6 -8 4.5 -18.5t-9.5 -16.5q-63 -48 -138 -73q-76 -26 -156 -26q-99 0 -189 38q-88 37 -155.5 104.5t-103.5 155.5q-39 90 -39 189t39 189q36 88 103.5 155.5t155.5 104.5q90 38 189 38t189 -38q88 -37 155.5 -104.5t104.5 -155.5
q38 -90 38 -189zM652.5 220.5q-0.5 -10.5 -8.5 -16.5q-7 -7 -17 -7q-11 0 -18 9l-72 82q-2 -9 -9 -15t-16 -6q-10 0 -17.5 7t-7.5 18v53l-40 46q-7 8 -6 18t8 17q7 6 17 6q11 0 18 -9l3 -2v217q0 10 7.5 17.5t17.5 7.5t17.5 -7.5t7.5 -17.5v-274l109 -125q7 -8 6.5 -18.5z
" />
    <glyph glyph-name="success" unicode="&#xe674;" 
d="M517.5 868q-98.5 0 -188.5 -38.5t-154.5 -103t-103 -154.5t-38.5 -188.5t38.5 -188t103 -154.5t154.5 -103.5t188 -38.5q170 0 302 106q7 6 8.5 15.5t-5 17.5t-16 9t-17.5 -5q-119 -95 -272 -95q-89 0 -170 34.5t-139.5 93t-93 139.5t-34.5 170t34.5 169.5t93 139
t139.5 93.5t170 35t170 -35t139.5 -93.5t93 -139t34.5 -169.5q0 -125 -66 -231q-5 -8 -2.5 -17.5t10.5 -15t17.5 -3t15.5 10.5q72 117 72 256q0 98 -38 188t-103 154.5t-154.5 103t-188 38.5zM789 521l-284 -293q-7 -7 -16.5 -7t-16.5 6l-172 158q-7 6 -7.5 16t6.5 17
t16.5 7.5t16.5 -5.5l155 -142l268 276q6 7 16 7t17 -7t7 -16.5t-6 -16.5z" />
    <glyph glyph-name="warning" unicode="&#xe675;" 
d="M601 707q-38 59 -94.5 59t-94.5 -59l-352 -549q-38 -60 -12 -106.5t98 -48.5h731q72 -1 99 44.5t-12 104.5q-2 5 -11 17q-4 7 -7 12q-5 8 -14.5 10t-18 -3t-10.5 -14t3 -17q3 -5 7 -12q9 -13 11 -17q24 -37 11 -58.5t-57 -20.5h-731q-45 1 -58 24t11 60l352 550
q24 37 54.5 37t54.5 -37l284 -431q6 -8 15.5 -10t17.5 3t10 14.5t-3 17.5zM477 286q0 -9 8.5 -16t21 -7t21 7t8.5 16v300q0 9 -8.5 16t-21 7t-21 -7t-8.5 -16v-300zM478 144q0 -11 8.5 -18t20.5 -7t20.5 7.5t8.5 17.5l-1 65q0 10 -8.5 17.5t-20.5 7.5t-20.5 -7.5t-8.5 -17.5
z" />
    <glyph glyph-name="search" unicode="&#xe656;" 
d="M969 -52l-165 166q60 63 93 143q33 82 33 171.5t-33 172.5q-35 85 -100.5 151t-151.5 100q-82 34 -171.5 34t-172.5 -34q-85 -34 -151 -100t-100 -151q-34 -83 -34 -172.5t34 -171.5q34 -85 100 -151t151 -101q83 -33 172.5 -33t171.5 33q57 23 105 61l169 -169zM473 44
q-77 0 -147.5 29t-125 83.5t-83.5 125t-29 147.5t29 147.5t83.5 125t125 83.5t147.5 29t147.5 -29t125 -83.5t83.5 -125t29 -147.5t-29 -147.5t-83.5 -125t-125 -83.5t-147.5 -29z" />
    <glyph glyph-name="display" unicode="&#xe677;" 
d="M23 336q0 -117 65.5 -216.5t178 -157t245.5 -57.5t245.5 57.5t178 157t65.5 217t-65.5 216.5t-178 156.5t-245.5 57.5h5q-3 2 -11 9q-24 22 -45 35q-81 52 -212 52q-9 0 -16 -7t-7 -17t7 -17t16 -7q117 0 186 -44q3 -2 20.5 -16t33.5 -25t23 -11q120 0 222 -51.5
t161 -139.5t59 -192t-59 -192t-161 -139.5t-222 -51.5t-222 51.5t-161 139.5t-59 192t60.5 193.5t164.5 140.5q9 4 12 13.5t-1.5 18.5t-13.5 12t-18 -1q-116 -57 -183.5 -158t-67.5 -219zM464 216q15 0 25.5 24.5t10.5 59.5t-10.5 59.5t-25.5 24.5t-25.5 -24.5t-10.5 -59.5
t10.5 -59.5t25.5 -24.5zM774.5 264q14.5 0 25 28t10.5 68t-10.5 68t-25 28t-25 -28t-10.5 -68t10.5 -68t25 -28z" />
    <glyph glyph-name="category" unicode="&#xe658;" 
d="M994 121q0 -10 -8 -17t-19 -7h-670q-11 0 -19 7t-8 17t8 17t19 7h670q11 0 19 -7t8 -17zM176 121q0 -10 -8 -17t-19 -7h-92q-11 0 -19 7t-8 17t8 17t19 7h92q11 0 19 -7t8 -17zM176 647q0 -10 -8 -17t-19 -7h-92q-11 0 -19 7t-8 17t8 17t19 7h92q11 0 19 -7t8 -17z
M985 647q0 -10 -7.5 -17t-18.5 -7h-671q-11 0 -19 7t-8 17t8 17t19 7h671q11 0 18.5 -7t7.5 -17zM991 384q0 -10 -8 -17t-19 -7h-670q-11 0 -19 7t-8 17t8 17t19 7h670q11 0 19 -7t8 -17zM176 384q0 -10 -8 -17t-19 -7h-92q-11 0 -19 7t-8 17t8 17t19 7h92q11 0 19 -7t8 -17
z" />
    <glyph glyph-name="prompt" unicode="&#xe678;" 
d="M513 864q-98 0 -187 -38t-153.5 -102.5t-102.5 -153.5t-38 -187t38 -187t102.5 -153.5t153.5 -102.5t187 -38q168 0 300 105q7 6 8 15.5t-5 17t-15.5 8.5t-17.5 -5q-118 -94 -270 -94q-118 0 -218 58t-158 158t-58 218t58 218t158 158t218 58t218 -58t158 -158t58 -218
q0 -124 -65 -229q-5 -8 -3 -17.5t10.5 -15t17.5 -3t15 10.5q72 116 72 254q0 98 -38 187t-102.5 153.5t-153.5 102.5t-187 38zM548 606q0 10 -7 16.5t-16.5 6.5t-16.5 -6.5t-7 -16.5v-41q0 -10 7 -17t16.5 -7t16.5 7t7 17v41zM524.5 489q-9.5 0 -16.5 -7t-7 -17v-299
q0 -10 7 -17t16.5 -7t16.5 7t7 17v299q0 10 -7 17t-16.5 7z" />
    <glyph glyph-name="arrow-down-filling" unicode="&#xe65b;" horiz-adv-x="1038" 
d="M2 640l510 -512l510 512h-1020z" />
    <glyph glyph-name="sorting" unicode="&#xe676;" 
d="M478 869zM390 8l-233 291l-56 -45l288 -359l1 1v-1h36h36v978h-72v-865zM635 873l-1 -1v1h-36h-36v-978h72v865l233 -291l56 45z" />
    <glyph glyph-name="ascending" unicode="&#xe606;" 
d="M528 890zM528 -88zM821 523l-288 358h-1v0h-36h-36v-977h72v864l233 -290z" />
    <glyph glyph-name="descending" unicode="&#xe608;" 
d="M478 -109zM478 869zM184 258l289 -359v1v-1h36h36v978h-72v-864l-233 290z" />
    <glyph glyph-name="success-filling" unicode="&#xe679;" 
d="M514.5 -117q101.5 0 194 39.5t159.5 106.5t106.5 159.5t39.5 194t-39.5 194t-106.5 159.5t-159.5 107t-194 40t-194 -40t-159.5 -107t-106.5 -159.5t-39.5 -194t39.5 -194t106.5 -159.5t159.5 -106.5t194 -39.5zM299 405l112 -108l315 303l68 -65l-383 -368l-180 173z
" />
    <glyph glyph-name="picture" unicode="&#xe60c;" 
d="M475 320l-35 -4l228 -144l16 -11l15 12l313 231l12 9v14v260q0 60 -41.5 102.5t-100.5 42.5h-854h-28v-29v-722q0 -60 41.5 -102.5t100.5 -42.5h854h28v29v260q0 12 -8.5 20.5t-20 8.5t-20 -8.5t-8.5 -20.5v-260l29 29h-854q-35 0 -60 25.5t-25 61.5v722l-29 -29h854
q35 0 60 -25.5t25 -61.5v-260l12 24l-313 -231l32 1l-228 144l-19 12l-16 -16l-228 -231q-8 -9 -8 -21t8.5 -20t20 -8t20.5 8zM341 557.5q0 41.5 -29 71.5t-70 30t-70.5 -30t-29.5 -71.5t29.5 -71.5t70.5 -30t70 30t29 71.5zM199 557q0 18 12.5 31t30 13t30 -13t12.5 -31
t-12.5 -30.5t-30 -12.5t-30 12.5t-12.5 30.5z" />
    <glyph glyph-name="close" unicode="&#xe67a;" 
d="M968 789l-51 51l-405 -405l-405 405l-51 -51l405 -405l-405 -405l51 -51l405 405l405 -405l51 51l-405 405z" />
    <glyph glyph-name="semi-select" unicode="&#xe67b;" 
d="M13 384h998h-998zM13 466h998v-164h-998v164z" />
    <glyph glyph-name="tag-subscript" unicode="&#xe614;" 
d="M1024 -128h-1024l1024 1024v-1024z" />
    <glyph glyph-name="survey" unicode="&#xe65f;" 
d="M731 849q30 0 50.5 -20.5t20.5 -50.5v-329l-389 -399h11h-284q-29 0 -50 20.5t-21 49.5v729h-24h686zM22 896v-24v-752q0 -49 34.5 -83t83.5 -34h284h10l7 7l402 406l7 7v10v345q0 49 -35 83.5t-84 34.5h-686h-23zM778 260l89 -89l18 -20l98 99l-127 127l-96 -100z
M917 253l-35 -36l-59 58l34 37zM772 291l-256 -256l-5 -5l-2 -7l-23 -117l-7 -34l35 7l116 23l7 2l5 5l257 256l16 17l-16 16l-94 93l-16 17l-17 -17v0v0zM789 241l60 -60l-236 -233l-76 -17l19 78zM154 504h541q10 0 17 6.5t7 15.5t-7 15t-17 6h-541q-9 0 -16 -6t-7 -15
t7 -15.5t16 -6.5v0v0zM154 656h541q10 0 17 6.5t7 15.5t-7 15.5t-17 6.5h-541q-9 0 -16 -6.5t-7 -15.5t7 -15.5t16 -6.5v0v0z" />
    <glyph glyph-name="loading" unicode="&#xe67c;" 
d="M512 594q-12 0 -21 9t-9 21v240q0 13 9 21.5t21 8.5t21 -8.5t9 -21.5v-240q0 -12 -9 -21t-21 -9v0zM512 -126q-12 0 -21 8.5t-9 21.5v240q0 12 9 21t21 9t21 -9t9 -21v-240q0 -13 -9 -21.5t-21 -8.5v0zM992 354h-240q-12 0 -21 9t-9 21t9 21t21 9h240q13 0 21.5 -9
t8.5 -21t-8.5 -21t-21.5 -9v0zM272 354h-240q-13 0 -21.5 9t-8.5 21t8.5 21t21.5 9h240q12 0 21 -9t9 -21t-9 -21t-21 -9v0zM928 114q-8 0 -15 4l-208 120q-11 6 -14 18t3 23t18 14t23 -3l208 -120q11 -6 14 -18t-3 -23q-9 -15 -26 -15v0zM304 474q-8 0 -15 4l-208 120
q-11 6 -14 18t3 23t18 14t23 -3l208 -120q11 -6 14 -18t-3 -23q-9 -15 -26 -15v0zM752 -62q-17 0 -26 15l-120 208q-6 11 -3 23t14 18t23 3t18 -14l120 -208q6 -11 3 -23t-14 -18q-7 -4 -15 -4v0zM392 562q-17 0 -26 15l-120 208q-6 11 -3 23t14 18t23 3t18 -14l120 -208
q6 -11 3 -23t-14 -18q-7 -4 -15 -4v0zM272 -62q-8 0 -15 4q-11 6 -14 18t3 23l120 208q6 11 18 14t23 -3t14 -18t-3 -23l-120 -208q-9 -15 -26 -15v0zM632 562q-8 0 -15 4q-11 6 -14 18t3 23l120 208q6 11 18 14t23 -3t14 -18t-3 -23l-120 -208q-9 -15 -26 -15v0zM96 114
q-17 0 -26 15q-6 11 -3 23t14 18l208 120q11 6 23 3t18 -14t3 -23t-14 -18l-208 -120q-7 -4 -15 -4v0zM720 474q-17 0 -26 15q-6 11 -3 23t14 18l208 120q11 6 23 3t18 -14t3 -23t-14 -18l-208 -120q-7 -4 -15 -4v0z" />
    <glyph glyph-name="arrow-double-left" unicode="&#xe616;" 
d="M914 -124l51 50l-463 463l453 453l-51 50l-503 -503zM573 -124l50 50l-462 463l453 453l-51 50l-504 -503z" />
    <glyph glyph-name="arrow-double-right" unicode="&#xe661;" 
d="M965 389l-504 503l-51 -50l453 -453l-462 -463l50 -50zM623 389l-503 503l-51 -50l453 -453l-463 -463l51 -50z" />
    <glyph glyph-name="delete-filling" unicode="&#xe681;" 
d="M512 384v0v0zM512 884q-102 0 -194.5 -39.5t-159.5 -106.5t-106.5 -159.5t-39.5 -194.5t39.5 -194.5t106.5 -159.5t159.5 -106.5t194.5 -39.5t194.5 39.5t159.5 106.5t106.5 159.5t39.5 194.5t-39.5 194.5t-106.5 159.5t-159.5 106.5t-194.5 39.5zM789 179l-72 -72
l-205 205l-205 -205l-72 72l205 205l-205 205l72 72l205 -205l205 205l72 -72l-205 -205z" />
    <glyph glyph-name="arrow-left" unicode="&#xe682;" 
d="M765 -48l-399 429l398 436l-55 59l-450 -494l452 -490z" />
  </font>
</defs>
</svg>
